<?xml version="1.0" standalone="no"?>
<!DOCTYPE svg PUBLIC "-//W3C//DTD SVG 1.1//EN" "http://www.w3.org/Graphics/SVG/1.1/DTD/svg11.dtd" >
<svg xmlns="http://www.w3.org/2000/svg">
<metadata>Generated by IcoMoon</metadata>
<defs>
<font id="sinatra" horiz-adv-x="1024">
<font-face units-per-em="1024" ascent="877.7142857142858" descent="-146.28571428571428" />
<missing-glyph horiz-adv-x="1024" />
<glyph unicode="&#x20;" horiz-adv-x="256" d="" />
<glyph unicode="&#xe000;" glyph-name="500px" d="M252.928 191.232c0-1.024 5.12-15.36 8.192-22.528 16.384-39.936 40.96-75.776 71.68-106.496s66.56-55.296 106.496-71.68c40.96-17.408 84.992-26.624 130.048-26.624s89.088 9.216 130.048 26.624c39.936 16.384 75.776 40.96 106.496 71.68s55.296 66.56 71.68 106.496c17.408 40.96 26.624 84.992 26.624 130.048s-9.216 89.088-26.624 130.048c-16.384 39.936-40.96 75.776-71.68 106.496s-66.56 55.296-106.496 71.68c-40.96 17.408-84.992 26.624-130.048 26.624-46.080 0-91.136-9.216-132.096-26.624-32.768-13.312-88.064-49.152-119.808-82.944v0 277.504h463.872c16.384 0 16.384 23.552 16.384 31.744s0 31.744-17.408 31.744l-499.712-1.024c-13.312 0-22.528-11.264-22.528-21.504v-388.096c0-12.288 15.36-21.504 29.696-24.576 28.672-6.144 34.816 3.072 41.984 12.288l1.024 1.024c10.24 15.36 44.032 49.152 44.032 49.152 51.2 51.2 120.832 79.872 194.56 79.872s142.336-28.672 193.536-79.872c52.224-52.224 79.872-120.832 79.872-193.536s-28.672-141.312-79.872-193.536c-51.2-51.2-121.856-79.872-194.56-79.872-49.152 0-97.28 13.312-138.24 37.888v236.544c0 31.744 13.312 65.536 36.864 91.136 26.624 29.696 62.464 46.080 101.376 46.080 37.888 0 73.728-14.336 100.352-40.96 26.624-25.6 40.96-60.416 40.96-97.28 0-78.848-62.464-140.288-141.312-140.288-15.36 0-43.008 7.168-44.032 7.168-16.384 5.12-22.528-17.408-24.576-24.576-8.192-27.648 4.096-33.792 7.168-34.816 25.6-8.192 41.984-9.216 64.512-9.216 111.616 0 202.752 91.136 202.752 202.752 0 110.592-91.136 201.728-202.752 201.728-54.272 0-106.496-20.48-144.384-59.392-36.864-35.84-58.368-83.968-58.368-132.096v-1.024c0-6.144 0-147.456 0-193.536v0c-21.504 23.552-41.984 59.392-55.296 95.232-5.12 14.336-17.408 11.264-33.792 6.144-9.216-3.072-31.744-9.216-26.624-25.6v0zM491.52 246.528c0-7.168 6.144-12.288 10.24-16.384v-1.024c6.144-6.144 12.288-9.216 18.432-9.216 5.12 0 7.168 2.048 8.192 3.072 3.072 3.072 34.816 34.816 37.888 37.888l35.84-34.816c3.072-4.096 7.168-5.12 11.264-6.144 6.144 0 12.288 3.072 18.432 10.24 15.36 15.36 7.168 23.552 4.096 27.648l-35.84 35.84 36.864 37.888c8.192 9.216 1.024 18.432-6.144 25.6-10.24 10.24-20.48 13.312-26.624 7.168l-36.864-36.864-37.888 37.888c-2.048 2.048-4.096 3.072-7.168 3.072-5.12 0-11.264-3.072-17.408-10.24-11.264-11.264-14.336-19.456-8.192-25.6l37.888-37.888-36.864-37.888c-5.12-3.072-6.144-7.168-6.144-10.24zM573.44 754.432c-60.416 0-123.904-12.288-171.008-32.768-5.12-2.048-8.192-6.144-8.192-11.264-1.024-5.12 1.024-12.288 4.096-21.504 3.072-7.168 10.24-27.648 25.6-21.504 48.128 18.432 101.376 28.672 149.504 28.672 55.296 0 107.52-10.24 157.696-31.744 39.936-16.384 76.8-40.96 117.76-76.8 3.072-3.072 6.144-4.096 9.216-4.096 8.192 0 15.36 8.192 22.528 15.36 11.264 12.288 18.432 22.528 7.168 32.768-38.912 36.864-81.92 64.512-134.144 87.040-57.344 23.552-117.76 35.84-180.224 35.84zM896 13.056v0c-7.168 7.168-13.312 11.264-18.432 13.312s-10.24 0-14.336-3.072l-3.072-4.096c-36.864-36.864-80.896-66.56-129.024-87.040-50.176-21.504-103.424-31.744-157.696-31.744s-107.52 10.24-157.696 31.744c-48.128 20.48-91.136 49.152-129.024 87.040-38.912 38.912-67.584 81.92-87.040 129.024-18.432 45.056-24.576 79.872-26.624 91.136 0 1.024 0 2.048 0 2.048-2.048 13.312-14.336 14.336-31.744 11.264-7.168-1.024-29.696-4.096-27.648-20.48v0c6.144-36.864 16.384-72.704 30.72-107.52 23.552-55.296 57.344-105.472 99.328-147.456 43.008-43.008 92.16-76.8 147.456-99.328 57.344-24.576 118.784-36.864 181.248-36.864s123.904 12.288 181.248 36.864c55.296 23.552 105.472 57.344 147.456 99.328 0 0 2.048 2.048 4.096 4.096 6.144 4.096 10.24 13.312-9.216 31.744z" />
<glyph unicode="&#xe010;" glyph-name="behance" d="M922 568h-256v60h256zM498 326c20-28 30-60 30-100 0-32-6-60-18-82-14-24-30-42-50-58-22-14-46-24-72-32-26-6-54-10-82-10h-306v636h296c30 0 58-6 84-12 24-6 44-16 62-28s32-30 42-50c10-18 14-44 14-74s-6-58-22-78c-14-22-36-40-64-52 40-12 68-32 86-60zM134 424h144c26 0 46 2 62 14s24 28 24 56c0 14-2 26-8 36-6 8-12 16-22 22-8 4-18 10-30 12s-24 4-36 4h-134zM390 234c0 32-10 54-28 68s-42 20-72 20h-156v-174h152c14 0 28 2 40 4 12 4 22 8 32 14s18 14 22 26c6 10 10 24 10 42zM1024 240h-330c0-32 12-70 32-88 18-18 46-28 80-28 26 0 48 8 66 22 18 12 28 22 34 42h110c-18-62-46-96-82-120s-80-38-132-38c-36 0-68 6-98 18-28 12-52 28-72 48-20 22-36 48-48 78-10 28-16 60-16 96 0 34 6 66 18 96 10 30 26 54 46 76 22 22 46 38 74 52 30 12 62 18 96 18 38 0 72-8 102-22 28-16 52-36 70-60 20-26 32-56 40-88s12-72 10-102zM898 322c-4 30-14 54-28 70-16 18-42 26-72 26-20 0-36-4-50-12-12-6-24-14-32-24s-12-20-16-32c-4-10-6-18-6-28z" />
<glyph unicode="&#xe01a;" glyph-name="deviantart" d="M966 316c-48 58-108 94-176 122-88 36-180 50-274 52-6 0-14 0-24 0 0 32 0 62 0 96-42-4-82-10-134-14 0-6 0-8 0-12 0-24 0-50 0-74 2-8-2-12-10-14-68-14-132-36-192-72-46-28-86-62-116-108-36-54-50-114-34-176 164 0 322 0 486 0 0 102 0 196 0 294 20 0 42 0 62 0 52-4 104-12 152-32 64-30 108-76 126-144 2-4 2-16 4-16-58 0-108 0-170 0 0 0 0 10 0 14 0 38 0 78 0 118 0 8-2 12-10 12-26 6-48 10-74 14-16 2-40 2-50 4 0-90 0-182 0-264 164 0 322 0 486 0 2 20 6 30 6 44 2 60-20 110-58 156zM358 218c-62 0-112 0-168 0 4 72 86 162 168 172 0-56 0-110 0-172z" />
<glyph unicode="&#xe01c;" glyph-name="digg" d="M308 516h102v-348h-102zM164 660h102v-492h-266v348h164zM164 434h-62v-184h62zM308 556h102v104h-102zM450 516h266v-472h-266v82h164v42h-164zM552 250h62v184h-62zM1024 516v-472h-266v82h164v42h-164v348zM922 434h-62v-184h62z" />
<glyph unicode="&#xe021;" glyph-name="dribbble" d="M510 860c-282 0-512-230-512-512s230-512 512-512c284 0 512 230 512 512s-228 512-512 512zM850 624c60-74 98-168 98-272-14 4-158 32-304 14-4 8-6 16-10 22-8 22-18 44-28 64 160 66 234 160 244 172zM510 786c112 0 214-42 290-110-6-12-72-100-228-158-72 130-152 238-164 256 34 8 68 12 102 12zM326 744c10-16 88-124 162-254-206-54-386-52-406-52 30 136 120 248 244 306zM74 348c0 4 0 8 0 14 18-2 230-4 450 62 12-24 24-50 34-74-6-2-10-4-16-6-226-72-346-272-356-288-70 78-112 180-112 292zM510-90c-100 0-194 36-268 92 8 18 96 188 344 274 0 0 2 0 2 2 62-160 88-294 94-332-52-22-110-36-172-36zM756-14c-6 26-28 154-86 312 138 22 258-14 272-20-18-122-88-226-186-292z" />
<glyph unicode="&#xe027;" glyph-name="etsy" d="M112 824c-2 14 4 24 24 24 18 0 212-6 342-6 268 0 334 22 380 22 24-2 30-20 30-32s-12-36-12-68c0-32 8-64 8-94 0-28-24-36-38-36-12 0-20 4-20 28-2 46 32 112-296 112-166 0-170-20-170-72 0-54 0-228 0-254 0-28 8-36 30-36s192 0 238 0c46 0 94 24 100 90 2 34 10 36 28 36s32-14 30-46c-4-34-10-68-10-114 0-48 10-94 10-128s-46-42-54-4c-8 34-22 96-126 96s-188 0-212 0c-24 0-34-14-34-52s0-224 0-270c0-48 14-98 108-98 96 0 268-10 348 52 32 26 44 66 54 130 6 28 70 28 66-40-2-32-32-98-32-142 0-34 8-84-24-84-28 0-16 16-140 16s-550-4-622-4c-26 0-32 8-32 24s10 28 32 28c22 0 118 0 118 120 0 122 0 564 0 630 0 64-14 130-94 138-32 4-30 16-30 34z" />
<glyph unicode="&#xe028;" glyph-name="facebook" d="M592-160v468h156l24 182h-180v116c0 52 14 88 90 88h96v162c-16 4-74 8-140 8-140 0-234-84-234-240v-134h-158v-182h158v-468z" />
<glyph unicode="&#xe02d;" glyph-name="flickr" d="M232 120c-128 0-232 104-232 232s104 232 232 232c128 0 232-104 232-232s-104-232-232-232zM792 120c-128 0-232 104-232 232s104 232 232 232c128 0 232-104 232-232s-104-232-232-232z" />
<glyph unicode="&#xe030;" glyph-name="foursquare" d="M788 864c0 0-470 0-546 0-74 0-96-56-96-92s0-868 0-868c0-40 20-56 32-60 14-6 46-10 66 14 0 0 258 300 262 304 8 6 8 6 14 6 14 0 114 0 168 0 70 0 80 50 88 80 6 24 74 374 98 486 16 84-4 130-86 130zM776 248c6 24 74 374 98 486zM756 716l-22-120c-4-12-20-26-34-26-16 0-214 0-214 0-24 0-40-16-40-40v-26c0-24 16-40 40-40 0 0 164 0 182 0 16 0 32-20 30-38-4-18-22-108-24-118-2-8-12-26-34-26-16 0-146 0-146 0-28 0-36-4-54-26s-178-216-178-216c-2-2-4-2-4 0v678c0 16 14 34 34 34 0 0 420 0 438 0 16 0 30-16 26-36z" />
<glyph unicode="&#xe032;" glyph-name="github" d="M968 508c0 72-24 132-68 178 8 16 30 84-6 176 0 0-56 18-182-68-54 14-110 22-168 22-56 0-112-8-166-22-128 86-182 68-182 68-38-92-14-160-8-176-42-46-68-106-68-178 0-256 156-312 304-330-20-16-38-46-44-88-38-18-134-46-192 56 0 0-36 62-102 68 0 0-66 0-6-40 0 0 44-22 74-98 0 0 40-118 224-78 2-56 2-142 2-158h330c0 22 0 128 0 216 0 62-20 102-44 124 148 16 302 72 302 328zM132 182c-2-2-8-4-12-2s-8 8-6 10c2 4 6 6 12 2 4-2 6-6 6-10zM158 152c-2-2-10 0-14 4s-4 10-2 14c4 2 10 2 14-4 4-4 6-10 2-14zM184 114c-4-2-10 0-14 6s-4 14 0 16c4 2 10 0 14-6s4-12 0-16zM220 78c-4-4-12-4-16 2-6 6-8 12-4 16 4 6 12 4 16-2 6-4 8-12 4-16zM270 56c-2-6-10-8-16-6-8 2-14 8-12 14s10 8 18 6c6-2 12-8 10-14zM310 42c-8 0-14 4-14 10s6 10 14 10c8 0 14-4 14-10s-6-10-14-10zM362 48c-8-2-14 2-16 8 0 4 6 10 14 12s14-2 16-8c0-4-6-10-14-12z" />
<glyph unicode="&#xe034;" glyph-name="google" d="M1012 386c-2 20-4 42-8 62-160 0-322 0-482 0 0-66 0-134 0-200 0 0 0 0 0 0s0 0 0 0c94 0 186 0 280 0-12-64-50-122-104-158 0 0 0 0 0 0-34-22-72-38-112-44-40-8-82-8-122 0-42 8-80 26-114 50-50 34-90 86-112 142-2 4-4 10-6 14 0 0 0 0 0 0s0 0 2 0c-22 64-22 136-2 200 16 44 42 86 76 120 40 42 94 72 152 86 50 10 102 8 150-6 42-14 80-36 110-66 32 32 64 62 94 94 18 16 34 34 50 50 0 0 0 0 0 0s0 0 0 0c-48 46-104 80-164 102-110 42-234 42-344 4-126-42-232-136-292-254-20-40-34-84-44-128-22-112-6-230 44-332 34-66 82-124 140-170 54-44 118-76 186-94 86-24 176-24 262-4 78 18 150 56 210 110 62 56 106 132 130 212 18 68 26 138 20 210z" />
<glyph unicode="&#xe044;" glyph-name="instagram" d="M512 772c138 0 152-2 206-4 52-2 78-10 96-16 24-10 42-22 58-38 18-18 30-36 38-58 8-20 16-46 18-96 2-56 4-70 4-208s-2-152-4-206c-2-52-10-78-16-96-10-24-22-42-38-58-18-18-36-30-58-38-20-8-46-16-96-18-56-2-70-4-208-4s-152 2-206 4c-52 2-78 10-96 16-24 10-42 22-58 38-18 18-30 36-38 58-8 20-16 46-18 96-2 56-4 70-4 208s2 152 4 206c2 52 10 78 16 96 10 24 22 42 38 58 18 18 36 30 58 38 20 8 46 16 96 18 56 2 70 4 208 4M512 864c-140 0-156-2-210-4-56-2-94-10-124-22-34-14-64-32-92-60s-46-58-60-92c-12-32-20-68-22-124-2-54-4-70-4-210s2-156 4-210c2-56 10-94 22-124 14-34 32-64 60-92s58-46 92-60c32-12 68-20 124-22 54-2 70-4 210-4s156 2 210 4c56 2 94 10 124 22 34 14 64 32 92 60s46 58 60 92c12 32 20 68 22 124 2 54 4 70 4 210s-2 156-4 210c-2 56-10 94-22 124-14 34-32 64-60 92s-58 46-92 60c-32 12-68 20-124 22-54 2-70 4-210 4zM512 616c-146 0-264-118-264-264s118-264 264-264c146 0 264 118 264 264s-118 264-264 264zM512 180c-94 0-172 78-172 172s78 172 172 172c94 0 172-78 172-172s-78-172-172-172zM846 626c0-34-26-62-60-62s-62 28-62 62c0 34 28 60 62 60s60-26 60-60z" />
<glyph unicode="&#xe04c;" glyph-name="linkedin" d="M766 340c-14 16-38 24-72 24-44 0-74-14-92-38-18-26-26-62-26-108v-350c0-6-2-12-8-18-4-4-12-8-18-8h-184c-6 0-12 4-18 8-4 6-8 12-8 18v646c0 6 4 12 8 18 6 4 12 8 18 8h178c6 0 12-2 16-4s6-8 8-14c0-6 2-12 2-14s0-8 0-16c46 44 108 64 182 64 86 0 152-20 200-62 48-44 72-106 72-190v-436c0-6-2-12-8-18-4-4-12-8-18-8h-188c-6 0-12 4-18 8-4 6-8 12-8 18v394c0 34-6 60-18 78zM212 650c-24-24-54-36-88-36s-64 12-88 36c-24 24-36 52-36 88 0 34 12 62 36 86s54 38 88 38c34 0 64-14 88-38s36-52 36-86c0-36-12-64-36-88zM242 514v-646c0-6-4-12-8-18-6-4-12-8-18-8h-184c-6 0-12 4-18 8-4 6-8 12-8 18v646c0 6 4 12 8 18 6 4 12 8 18 8h184c6 0 12-4 18-8 4-6 8-12 8-18z" />
<glyph unicode="&#xe051;" glyph-name="medium" d="M1016 630l-324 162c-2 0-2 0-4 0-4 0-10-2-12-4l-198-326 222-362 320 518c2 4 0 10-4 12zM372 576v-350l312-156zM710 58l286-144c14-8 28 0 28 18v636zM336 628l-298 148-20 12c-2 0-4 2-6 2-4 0-6-2-8-4s-4-6-4-12v-682c0-12 8-26 18-30l294-148c4-2 8-4 12-4 10 0 16 8 16 22v690c0 2 0 4-4 6z" />
<glyph unicode="&#xe063;" glyph-name="pinterest" d="M340 472c0 44 10 80 34 110 22 30 50 46 82 46 26 0 46-8 60-26s22-40 22-66c0-16-4-36-10-58-6-24-12-52-22-82-10-32-18-56-22-74-8-32-2-60 18-84 20-22 46-34 78-34 56 0 102 32 138 94 36 64 54 140 54 230 0 68-22 124-66 168-44 42-106 64-186 64-90 0-162-28-216-86-56-56-84-124-84-204 0-48 14-88 40-120 10-10 12-22 10-34-4-10-8-26-12-48-2-8-6-14-12-16s-12-2-18 0c-42 18-72 46-94 88s-32 90-32 144c0 36 6 70 18 106s28 70 52 102c24 34 54 62 86 88 34 26 74 46 124 62 48 14 100 22 154 22 58 0 110-10 158-30 48-18 90-44 122-76 34-34 58-70 78-112 18-42 28-86 28-130 0-120-30-220-92-298-62-80-140-118-236-118-32 0-62 6-90 22-28 14-48 32-60 54-22-94-36-150-42-168-12-46-40-102-86-168h-42c-8 82-6 150 6 204l78 330c-12 26-18 58-18 98z" />
<glyph unicode="&#xe06c;" glyph-name="reddit" d="M1024 360c0 56-44 100-100 100-32 0-60-14-78-38-80 58-192 94-318 96l74 220 184-44c4 0 6 0 8 0 2-42 36-76 80-76s78 36 78 80c0 44-34 78-78 78-34 0-60-18-74-46 0 0-2 2-4 2l-202 48c-10 2-20-4-22-12l-86-250c-122-4-230-38-310-94-18 22-44 36-76 36-56 0-100-44-100-100 0-40 24-76 60-92-4-14-6-30-6-46 0-164 204-298 456-298s456 134 456 298c0 14-2 30-6 44 38 16 64 52 64 94zM278 280c0 40 34 74 74 74s74-34 74-74c0-40-34-74-74-74s-74 34-74 74zM678 76c-34-34-88-50-166-50s-132 16-166 50c-4 4-4 12 0 18 4 4 12 4 16 0 30-30 78-44 150-44 70 0 120 14 150 44 4 4 12 4 16 0 4-6 4-14 0-18zM674 206c-42 0-76 32-76 74 0 40 34 74 76 74 40 0 72-34 72-74 0-42-32-74-72-74z" />
<glyph unicode="&#xe073;" glyph-name="skype" d="M988 244c8 32 10 68 10 102 0 266-214 482-480 482-28 0-56-2-82-6-44 26-94 42-150 42-154 0-278-126-278-280 0-50 14-100 38-140-6-32-10-64-10-98 0-266 216-480 482-480 30 0 58 2 88 8 38-22 84-34 132-34 154 0 278 126 278 280 0 44-10 86-28 124zM760 118c-22-32-54-56-98-74-42-18-92-26-150-26-68 0-126 12-172 36-32 16-60 40-80 70s-30 58-30 86c0 18 6 34 20 46s30 18 50 18c16 0 30-4 42-14s22-24 28-42c10-18 18-36 28-48s24-24 40-32c18-8 42-12 70-12 40 0 74 8 98 26 24 16 36 36 36 60 0 18-6 34-20 46-12 12-30 20-50 28-22 6-52 14-88 22-50 10-94 22-128 38-34 14-62 34-82 60s-32 58-32 96c0 36 12 70 34 98s52 50 94 64c40 16 86 22 140 22 44 0 82-4 112-14 32-10 60-24 80-40 22-16 38-34 48-52s14-38 14-56c0-16-6-32-20-46-12-14-30-20-50-20-16 0-30 4-40 12s-18 22-30 38c-12 24-26 42-42 54s-44 18-80 18c-36 0-64-6-84-20-20-12-30-28-30-46 0-10 2-20 10-28 6-8 16-16 28-22s26-12 38-14c14-4 36-10 68-18 38-8 74-16 106-26 32-12 60-24 82-38 24-16 42-34 54-58 14-22 20-52 20-84 0-40-12-76-34-108z" />
<glyph unicode="&#xe078;" glyph-name="soundcloud" d="M20 188h-20v124h20zM72 148h-20v194h20zM112 136h-20v226h20zM154 126h-20v226h20zM204 126h-20v298h20zM246 126h-20v338h20zM296 126h-20v360h20zM338 126h-20v370h20zM390 126h-22v360h22zM430 126h-20v348h20zM472 126h-22v390h22zM522 126h-20v420h20zM898 130c-2 0-350 0-350 0-8 0-16 6-16 14v400c0 8 4 12 14 16 24 10 52 14 80 14 116 0 212-88 222-202 16 6 32 10 50 10 70 0 126-56 126-126s-56-126-126-126z" />
<glyph unicode="&#xe079;" glyph-name="spotify" d="M826 34c-12-20-40-28-60-14-170 102-382 126-632 68-24-4-48 10-54 34s10 48 34 54c274 62 508 36 698-80 22-12 28-40 14-62zM914 230c-16-26-50-34-76-18-194 118-488 152-718 84-28-10-60 8-70 36-8 30 8 62 38 70 262 80 586 42 808-94 26-18 36-52 18-78zM1014 458c-18-32-60-42-92-24-232 138-614 150-836 84-34-12-72 8-84 44-10 36 10 74 46 84 254 78 676 62 944-96 32-20 42-60 22-92z" />
<glyph unicode="&#xe08b;" glyph-name="tumblr" d="M196 444v146c40 12 76 32 104 56s52 54 68 88c18 34 30 78 36 130h146v-258h244v-162h-244v-262c0-60 4-98 10-114 6-18 18-30 34-40 24-14 50-22 78-22 52 0 104 18 156 52v-162c-44-20-84-36-120-44-34-8-74-12-114-12-48 0-88 6-124 18s-68 28-92 50c-26 22-44 46-54 70s-14 60-14 108v358z" />
<glyph unicode="&#xe08c;" glyph-name="twitch" d="M734-26h-200l-134-134h-132v134h-246v712l68 178h912v-624zM912 286v490h-734v-646h200v-134l134 134h244zM668 596v-266h88v266zM422 330h90v266h-90z" />
<glyph unicode="&#xe08d;" glyph-name="twitter" d="M920 560c0-8 0-18 0-26 0-278-212-598-598-598-118 0-230 34-322 94 16-2 34-2 50-2 98 0 190 32 262 90-92 0-170 62-198 146 14-4 26-4 40-4 20 0 38 2 56 6-96 20-168 106-168 206 0 2 0 2 0 4 28-16 60-26 94-26-56 36-94 102-94 174 0 38 12 74 30 106 102-128 258-212 432-220-4 16-6 32-6 48 0 116 94 210 210 210 62 0 116-26 154-66 48 10 94 26 134 50-16-48-50-90-92-116 42 6 82 16 120 34-28-42-64-80-104-110z" />
<glyph unicode="&#xe093;" glyph-name="vimeo" d="M662 572c-24 0-50-6-76-18 50 166 146 246 288 240 106-2 156-70 150-204-6-100-74-236-210-410-138-180-256-272-352-272-60 0-110 56-152 166-28 102-56 202-82 304-32 110-64 164-100 164-8 0-34-16-80-48l-48 62c50 46 100 90 150 134 66 58 118 88 152 92 78 8 128-46 146-164 20-126 34-204 42-234 22-104 48-156 76-156 22 0 54 34 96 100 42 68 66 120 70 156 6 58-18 88-70 88z" />
<glyph unicode="&#xe095;" glyph-name="vkontakte" d="M990 158c-30 40-56 64-94 100-16 16-38 32-40 54-2 30 26 58 40 78 2 2 4 4 6 6s2 2 4 4c0 2 2 2 2 4 2 2 2 4 4 4 0 2 2 2 2 2 2 2 2 4 4 6 26 34 52 64 78 104 8 14 34 64 26 84-12 24-74 16-108 16-42 0-88 8-118-4-18-6-30-46-40-68-16-34-30-62-46-88 0-2-2-4-4-6 0 0 0 0 0 0 0-2-2-4-4-6 0 0 0 0 0 0-2-4-4-8-6-10 0-2-2-2-2-2 0-2-2-2-2-4-2-2-2-2-2-4-2 0-2-2-4-4 0 0-2-2-2-4-2 0-2-2-2-2-2-2-4-4-6-8-14-20-28-44-54-48-2 2-2 2-4 2 0 0 0 2 0 2-2 0-2 0-2 0 0 2-2 2-2 2s0 0-2 2c0 0 0 0 0 0s0 2-2 2c0 0 0 0 0 0 0 2-2 2-2 2s0 2 0 2c0 0-2 0-2 2 0 0 0 0 0 0 0 2 0 2-2 2 0 0 0 2 0 2s0 0 0 2c0 0-2 0-2 0 0 2 0 2 0 4 0 0 0 0 0 0-2 2-2 2-2 2 0 2 0 2 0 2s0 2 0 2c0 0 0 2-2 2 0 0 0 2 0 2s0 0 0 2c0 0 0 0 0 2 0 0 0 0 0 0 0 2 0 2-2 2 0 2 0 2 0 2 0 2 0 2 0 2 0 2 0 2 0 2 0 2 0 2 0 2 0 2 0 2 0 2 0 2 0 2 0 4 0 0 0 0 0 0 0 2 0 2 0 4 0 0 0 0 0 0 0 2 0 2 0 4 0 0-2 0-2 2 0 0 0 2 0 2s0 2 0 2c0 0 0 2 0 2s0 2 0 2c0 0 0 2 0 2 0 2 2 2 2 2 0 2 0 2 0 2 0 2 0 2 0 2 0 2 0 2 0 4 0 0 0 0 0 0 0 2 0 2 0 4 0 0 0 0 0 0 0 6 0 10 0 16 0 0 0 2 0 2 0 4 0 10 2 14 0 44 14 102-6 136-18 30-86 26-134 26-58 0-104-4-122-38 20-14 42-14 52-34 12-22 14-68 12-110 0-2 0-4 0-6 0-36-2-94-26-98s-44 32-58 50c-2 4-4 6-6 10 0 0-2 2-2 2-2 2-2 4-4 8 0 0-2 2-2 2-2 2-4 4-4 6-2 2-2 2-2 4-2 2-4 6-6 8-18 30-36 60-52 98-12 22-26 60-38 66-24 12-72 6-104 6-36 0-74 6-96-12 0-40 20-74 36-106 22-44 44-86 68-126 0-2 2-4 2-6 4-4 6-10 10-14 0-2 2-4 2-6 4-4 6-10 10-14 0-2 2-4 4-6 4-6 8-12 12-18 0 0 0 0 0 0 4-6 8-14 12-20 2-2 2-4 4-4 4-6 6-10 10-14 0-2 2-4 4-6 2-4 6-10 10-14 0-2 2-4 4-6 4-6 8-12 14-18 62-78 132-152 270-168 44-4 108-8 122 18 20 32-2 108 42 114 30 6 56-40 74-58 30-34 66-70 118-80 0 0 2 0 4 0 46 20 184-22 192 36 2 20-22 52-34 66z" />
<glyph unicode="&#xe09f;" glyph-name="xing" d="M246 146h-148c-8 0-14 4-18 10s-4 16 0 24l156 276c0 0 0 0 0 2l-100 172c-4 8-4 16 0 22s10 10 20 10h148c22 0 34-14 40-28 0 0 102-176 102-176-6-12-160-282-160-282-8-14-18-30-40-30zM944 832l-326-578c0 0 0-2 0-2l208-380c4-8 4-16 0-22s-10-10-20-10h-148c-22 0-32 16-40 28 0 0-210 384-210 386 10 18 328 582 328 582 8 14 18 28 40 28h150c8 0 16-4 18-10 4-6 4-14 0-22z" />
<glyph unicode="&#xe0a5;" glyph-name="youtube" d="M1014 556c0 0-10 72-40 102-40 42-84 42-104 44-142 10-358 10-358 10v0c0 0-216 0-358-10-20-2-64-2-104-44-30-30-40-102-40-102s-10-82-10-164v-78c0-84 10-166 10-166s10-70 40-102c40-40 92-40 114-44 82-8 348-10 348-10s216 0 358 10c20 2 64 4 104 44 30 32 40 102 40 102s10 82 10 166v78c0 82-10 164-10 164zM650 344v0l-242-126v288l276-144z" />
<glyph unicode="&#xe900;" glyph-name="activity" d="M938.667 426.667h-170.667c-17.067 0-34.133-12.8-38.4-29.867l-89.6-260.267-217.6 644.267c-4.267 17.067-21.333 29.867-38.4 29.867s-34.133-12.8-38.4-29.867l-119.467-354.133h-140.8c-25.6 0-42.667-17.067-42.667-42.667s17.067-42.667 42.667-42.667h170.667c17.067 0 34.133 12.8 38.4 29.867l89.6 260.267 217.6-648.533c4.267-17.067 21.333-29.867 38.4-29.867s34.133 12.8 38.4 29.867l119.467 354.133h140.8c25.6 0 42.667 17.067 42.667 42.667s-17.067 46.933-42.667 46.933z" />
<glyph unicode="&#xe901;" glyph-name="airplay" d="M853.333 810.667h-682.667c-72.533 0-128-55.467-128-128v-426.667c0-72.533 55.467-128 128-128h42.667c25.6 0 42.667 17.067 42.667 42.667s-17.067 42.667-42.667 42.667h-42.667c-25.6 0-42.667 17.067-42.667 42.667v426.667c0 25.6 17.067 42.667 42.667 42.667h682.667c25.6 0 42.667-17.067 42.667-42.667v-426.667c0-25.6-17.067-42.667-42.667-42.667h-42.667c-25.6 0-42.667-17.067-42.667-42.667s17.067-42.667 42.667-42.667h42.667c72.533 0 128 55.467 128 128v426.667c0 72.533-55.467 128-128 128zM546.133 281.6c-17.067 21.333-51.2 21.333-64 0l-213.333-256c-8.533-12.8-12.8-29.867-4.267-46.933 4.267-12.8 17.067-21.333 34.133-21.333h426.667c17.067 0 29.867 8.533 38.4 25.6s4.267 34.133-4.267 46.933l-213.333 251.733zM388.267 42.667l123.733 145.067 123.733-145.067h-247.467z" />
<glyph unicode="&#xe902;" glyph-name="alert-circle" d="M512 853.333c-260.267 0-469.333-209.067-469.333-469.333s209.067-469.333 469.333-469.333 469.333 209.067 469.333 469.333-209.067 469.333-469.333 469.333zM512 0c-213.333 0-384 170.667-384 384s170.667 384 384 384c213.333 0 384-170.667 384-384s-170.667-384-384-384zM512 597.333c-25.6 0-42.667-17.067-42.667-42.667v-170.667c0-25.6 17.067-42.667 42.667-42.667s42.667 17.067 42.667 42.667v170.667c0 25.6-17.067 42.667-42.667 42.667zM482.133 243.2c-8.533-8.533-12.8-17.067-12.8-29.867s4.267-21.333 12.8-29.867c8.533-8.533 17.067-12.8 29.867-12.8s21.333 4.267 29.867 12.8c8.533 8.533 12.8 21.333 12.8 29.867s-4.267 21.333-12.8 29.867c-17.067 17.067-42.667 17.067-59.733 0z" />
<glyph unicode="&#xe903;" glyph-name="alert-octagon" d="M968.533 588.8l-251.733 251.733c-4.267 8.533-17.067 12.8-29.867 12.8h-349.867c-12.8 0-25.6-4.267-29.867-12.8l-251.733-251.733c-8.533-4.267-12.8-17.067-12.8-29.867v-354.133c0-12.8 4.267-21.333 12.8-29.867l251.733-251.733c4.267-4.267 17.067-8.533 29.867-8.533h354.133c12.8 0 21.333 4.267 29.867 12.8l251.733 251.733c8.533 8.533 12.8 17.067 12.8 29.867v349.867c-4.267 12.8-8.533 25.6-17.067 29.867zM896 226.133l-226.133-226.133h-315.733l-226.133 226.133v315.733l226.133 226.133h320l221.867-226.133v-315.733zM512 597.333c-25.6 0-42.667-17.067-42.667-42.667v-170.667c0-25.6 17.067-42.667 42.667-42.667s42.667 17.067 42.667 42.667v170.667c0 25.6-17.067 42.667-42.667 42.667zM482.133 243.2c-8.533-8.533-12.8-17.067-12.8-29.867s4.267-21.333 12.8-29.867c8.533-8.533 17.067-12.8 29.867-12.8s21.333 4.267 29.867 12.8c8.533 8.533 12.8 21.333 12.8 29.867s-4.267 21.333-12.8 29.867c-17.067 17.067-42.667 17.067-59.733 0z" />
<glyph unicode="&#xe904;" glyph-name="alert-triangle" d="M981.333 149.333l-358.4 605.867c-17.067 29.867-46.933 51.2-81.067 59.733s-68.267 4.267-98.133-12.8c-17.067-8.533-34.133-25.6-42.667-42.667 0 0 0 0 0 0l-358.4-610.133c-34.133-59.733-12.8-140.8 46.933-174.933 17.067-12.8 38.4-17.067 59.733-17.067h725.333c34.133 0 68.267 12.8 89.6 38.4 25.6 25.6 38.4 55.467 38.4 89.6-4.267 21.333-8.533 46.933-21.333 64zM904.533 55.467c-8.533-8.533-21.333-12.8-29.867-12.8h-725.333c-8.533 0-12.8 0-21.333 4.267-21.333 12.8-25.6 38.4-17.067 59.733l362.667 601.6c4.267 4.267 8.533 12.8 12.8 12.8 21.333 12.8 46.933 4.267 59.733-12.8l362.667-601.6c4.267-4.267 4.267-12.8 4.267-21.333 4.267-12.8-4.267-21.333-8.533-29.867zM512 554.667c-25.6 0-42.667-17.067-42.667-42.667v-170.667c0-25.6 17.067-42.667 42.667-42.667s42.667 17.067 42.667 42.667v170.667c0 25.6-17.067 42.667-42.667 42.667zM482.133 200.533c-8.533-8.533-12.8-17.067-12.8-29.867s4.267-21.333 12.8-29.867c8.533-8.533 17.067-12.8 29.867-12.8s21.333 4.267 29.867 12.8c8.533 8.533 12.8 21.333 12.8 29.867s-4.267 21.333-12.8 29.867c-17.067 17.067-42.667 17.067-59.733 0z" />
<glyph unicode="&#xe905;" glyph-name="align-center" d="M256 512c-25.6 0-42.667-17.067-42.667-42.667s17.067-42.667 42.667-42.667h512c25.6 0 42.667 17.067 42.667 42.667s-17.067 42.667-42.667 42.667h-512zM128 597.333h768c25.6 0 42.667 17.067 42.667 42.667s-17.067 42.667-42.667 42.667h-768c-25.6 0-42.667-17.067-42.667-42.667s17.067-42.667 42.667-42.667zM896 341.333h-768c-25.6 0-42.667-17.067-42.667-42.667s17.067-42.667 42.667-42.667h768c25.6 0 42.667 17.067 42.667 42.667s-17.067 42.667-42.667 42.667zM768 170.667h-512c-25.6 0-42.667-17.067-42.667-42.667s17.067-42.667 42.667-42.667h512c25.6 0 42.667 17.067 42.667 42.667s-17.067 42.667-42.667 42.667z" />
<glyph unicode="&#xe906;" glyph-name="align-justify" d="M896 512h-768c-25.6 0-42.667-17.067-42.667-42.667s17.067-42.667 42.667-42.667h768c25.6 0 42.667 17.067 42.667 42.667s-17.067 42.667-42.667 42.667zM128 597.333h768c25.6 0 42.667 17.067 42.667 42.667s-17.067 42.667-42.667 42.667h-768c-25.6 0-42.667-17.067-42.667-42.667s17.067-42.667 42.667-42.667zM896 341.333h-768c-25.6 0-42.667-17.067-42.667-42.667s17.067-42.667 42.667-42.667h768c25.6 0 42.667 17.067 42.667 42.667s-17.067 42.667-42.667 42.667zM896 170.667h-768c-25.6 0-42.667-17.067-42.667-42.667s17.067-42.667 42.667-42.667h768c25.6 0 42.667 17.067 42.667 42.667s-17.067 42.667-42.667 42.667z" />
<glyph unicode="&#xe907;" glyph-name="align-left" d="M128 426.667h597.333c25.6 0 42.667 17.067 42.667 42.667s-17.067 42.667-42.667 42.667h-597.333c-25.6 0-42.667-17.067-42.667-42.667s17.067-42.667 42.667-42.667zM128 597.333h768c25.6 0 42.667 17.067 42.667 42.667s-17.067 42.667-42.667 42.667h-768c-25.6 0-42.667-17.067-42.667-42.667s17.067-42.667 42.667-42.667zM896 341.333h-768c-25.6 0-42.667-17.067-42.667-42.667s17.067-42.667 42.667-42.667h768c25.6 0 42.667 17.067 42.667 42.667s-17.067 42.667-42.667 42.667zM725.333 170.667h-597.333c-25.6 0-42.667-17.067-42.667-42.667s17.067-42.667 42.667-42.667h597.333c25.6 0 42.667 17.067 42.667 42.667s-17.067 42.667-42.667 42.667z" />
<glyph unicode="&#xe908;" glyph-name="align-right" d="M896 512h-597.333c-25.6 0-42.667-17.067-42.667-42.667s17.067-42.667 42.667-42.667h597.333c25.6 0 42.667 17.067 42.667 42.667s-17.067 42.667-42.667 42.667zM128 597.333h768c25.6 0 42.667 17.067 42.667 42.667s-17.067 42.667-42.667 42.667h-768c-25.6 0-42.667-17.067-42.667-42.667s17.067-42.667 42.667-42.667zM896 341.333h-768c-25.6 0-42.667-17.067-42.667-42.667s17.067-42.667 42.667-42.667h768c25.6 0 42.667 17.067 42.667 42.667s-17.067 42.667-42.667 42.667zM896 170.667h-597.333c-25.6 0-42.667-17.067-42.667-42.667s17.067-42.667 42.667-42.667h597.333c25.6 0 42.667 17.067 42.667 42.667s-17.067 42.667-42.667 42.667z" />
<glyph unicode="&#xe909;" glyph-name="anchor" d="M938.667 426.667h-128c-25.6 0-42.667-17.067-42.667-42.667s17.067-42.667 42.667-42.667h81.067c-21.333-179.2-162.133-320-337.067-337.067v512c72.533 17.067 128 85.333 128 166.4 0 93.867-76.8 170.667-170.667 170.667s-170.667-76.8-170.667-170.667c0-81.067 55.467-145.067 128-166.4v-516.267c-179.2 21.333-320 162.133-337.067 337.067h81.067c25.6 0 42.667 17.067 42.667 42.667s-17.067 42.667-42.667 42.667h-128c-25.6 0-42.667-17.067-42.667-42.667 0-260.267 209.067-469.333 469.333-469.333s469.333 209.067 469.333 469.333c0 29.867-17.067 46.933-42.667 46.933zM426.667 682.667c0 46.933 38.4 85.333 85.333 85.333s85.333-38.4 85.333-85.333-38.4-85.333-85.333-85.333c-46.933 0-85.333 38.4-85.333 85.333z" />
<glyph unicode="&#xe90a;" glyph-name="aperture" d="M891.733 110.933c55.467 76.8 89.6 170.667 89.6 273.067 0 64-12.8 128-38.4 183.467 0 0 0 4.267 0 4.267-64 149.333-204.8 256-375.467 277.333 0 0-4.267 0-4.267 0-17.067 4.267-34.133 4.267-51.2 4.267-153.6 0-290.133-72.533-375.467-187.733 0-4.267-4.267-4.267-4.267-8.533-55.467-76.8-89.6-170.667-89.6-273.067 0-64 12.8-128 38.4-187.733 0 0 0-4.267 0-4.267 64-145.067 204.8-256 371.2-277.333 0 0 4.267 0 4.267 0 17.067 0 34.133-4.267 51.2-4.267 153.6 0 290.133 72.533 375.467 187.733 4.267 4.267 8.533 8.533 8.533 12.8zM584.533 256h-149.333l-72.533 128 72.533 128h149.333l72.533-128-72.533-128zM128 384c0 59.733 12.8 119.467 38.4 170.667l170.667-298.667h-187.733c-12.8 38.4-21.333 81.067-21.333 128zM682.667 512h187.733c12.8-38.4 21.333-81.067 21.333-128 0-59.733-12.8-119.467-38.4-170.667l-170.667 298.667zM832 597.333h-345.6l93.867 162.133c106.667-17.067 196.267-76.8 251.733-162.133zM486.4 768l-170.667-298.667-93.867 162.133c64 76.8 157.867 128 264.533 136.533zM192 170.667h345.6l-93.867-162.133c-106.667 17.067-196.267 76.8-251.733 162.133zM537.6 0l170.667 298.667 93.867-162.133c-64-76.8-157.867-128-264.533-136.533z" />
<glyph unicode="&#xe90b;" glyph-name="archive" d="M981.333 810.667h-938.667c-25.6 0-42.667-17.067-42.667-42.667v-213.333c0-25.6 17.067-42.667 42.667-42.667h42.667v-512c0-25.6 17.067-42.667 42.667-42.667h768c25.6 0 42.667 17.067 42.667 42.667v512h42.667c25.6 0 42.667 17.067 42.667 42.667v213.333c0 25.6-17.067 42.667-42.667 42.667zM853.333 42.667h-682.667v469.333h682.667v-469.333zM938.667 597.333h-853.333v128h853.333v-128zM426.667 341.333h170.667c25.6 0 42.667 17.067 42.667 42.667s-17.067 42.667-42.667 42.667h-170.667c-25.6 0-42.667-17.067-42.667-42.667s17.067-42.667 42.667-42.667z" />
<glyph unicode="&#xe90c;" glyph-name="arrow-down" d="M840.533 413.867c-17.067 17.067-42.667 17.067-59.733 0l-226.133-226.133v494.933c0 25.6-17.067 42.667-42.667 42.667s-42.667-17.067-42.667-42.667v-494.933l-226.133 226.133c-17.067 17.067-42.667 17.067-59.733 0s-17.067-42.667 0-59.733l298.667-298.667c4.267-4.267 8.533-8.533 12.8-8.533 4.267-4.267 12.8-4.267 17.067-4.267s12.8 0 17.067 4.267c4.267 4.267 8.533 4.267 12.8 8.533l298.667 298.667c17.067 17.067 17.067 42.667 0 59.733z" />
<glyph unicode="&#xe90d;" glyph-name="arrow-down-circle" d="M512 853.333c-260.267 0-469.333-209.067-469.333-469.333s209.067-469.333 469.333-469.333 469.333 209.067 469.333 469.333-209.067 469.333-469.333 469.333zM512 0c-213.333 0-384 170.667-384 384s170.667 384 384 384c213.333 0 384-170.667 384-384s-170.667-384-384-384zM652.8 413.867l-98.133-98.133v238.933c0 25.6-17.067 42.667-42.667 42.667s-42.667-17.067-42.667-42.667v-238.933l-98.133 98.133c-17.067 17.067-42.667 17.067-59.733 0s-17.067-42.667 0-59.733l170.667-170.667c4.267-4.267 8.533-8.533 12.8-8.533 4.267-4.267 12.8-4.267 17.067-4.267s12.8 0 17.067 4.267c4.267 4.267 8.533 4.267 12.8 8.533l170.667 170.667c17.067 17.067 17.067 42.667 0 59.733s-42.667 17.067-59.733 0z" />
<glyph unicode="&#xe90e;" glyph-name="arrow-down-left" d="M725.333 213.333h-324.267l354.133 354.133c17.067 17.067 17.067 42.667 0 59.733s-42.667 17.067-59.733 0l-354.133-354.133v324.267c0 25.6-17.067 42.667-42.667 42.667s-42.667-17.067-42.667-42.667v-426.667c0-4.267 0-12.8 4.267-17.067 4.267-8.533 12.8-17.067 21.333-21.333 4.267-4.267 12.8-4.267 17.067-4.267h426.667c25.6 0 42.667 17.067 42.667 42.667s-17.067 42.667-42.667 42.667z" />
<glyph unicode="&#xe90f;" glyph-name="arrow-down-right" d="M768 597.333c0 25.6-17.067 42.667-42.667 42.667s-42.667-17.067-42.667-42.667v-324.267l-354.133 354.133c-17.067 17.067-42.667 17.067-59.733 0s-17.067-42.667 0-59.733l354.133-354.133h-324.267c-25.6 0-42.667-17.067-42.667-42.667s17.067-42.667 42.667-42.667h426.667c4.267 0 12.8 0 17.067 4.267 8.533 4.267 17.067 12.8 21.333 21.333 4.267 4.267 4.267 12.8 4.267 17.067v426.667z" />
<glyph unicode="&#xe910;" glyph-name="arrow-left" d="M810.667 426.667h-494.933l226.133 226.133c17.067 17.067 17.067 42.667 0 59.733s-42.667 17.067-59.733 0l-298.667-298.667c-4.267-4.267-8.533-8.533-8.533-12.8-4.267-8.533-4.267-21.333 0-34.133 4.267-4.267 4.267-8.533 8.533-12.8l298.667-298.667c8.533-8.533 21.333-12.8 29.867-12.8s21.333 4.267 29.867 12.8c17.067 17.067 17.067 42.667 0 59.733l-226.133 226.133h494.933c25.6 0 42.667 17.067 42.667 42.667s-17.067 42.667-42.667 42.667z" />
<glyph unicode="&#xe911;" glyph-name="arrow-left-circle" d="M512 853.333c-260.267 0-469.333-209.067-469.333-469.333s209.067-469.333 469.333-469.333 469.333 209.067 469.333 469.333-209.067 469.333-469.333 469.333zM512 0c-213.333 0-384 170.667-384 384s170.667 384 384 384c213.333 0 384-170.667 384-384s-170.667-384-384-384zM682.667 426.667h-238.933l98.133 98.133c17.067 17.067 17.067 42.667 0 59.733s-42.667 17.067-59.733 0l-170.667-170.667c-4.267-4.267-8.533-8.533-8.533-12.8-4.267-8.533-4.267-21.333 0-34.133 4.267-4.267 4.267-8.533 8.533-12.8l170.667-170.667c8.533-8.533 21.333-12.8 29.867-12.8s21.333 4.267 29.867 12.8c17.067 17.067 17.067 42.667 0 59.733l-98.133 98.133h238.933c25.6 0 42.667 17.067 42.667 42.667s-17.067 42.667-42.667 42.667z" />
<glyph unicode="&#xe912;" glyph-name="arrow-right" d="M849.067 366.933c4.267 8.533 4.267 21.333 0 34.133-4.267 4.267-4.267 8.533-8.533 12.8l-298.667 298.667c-17.067 17.067-42.667 17.067-59.733 0s-17.067-42.667 0-59.733l226.133-226.133h-494.933c-25.6 0-42.667-17.067-42.667-42.667s17.067-42.667 42.667-42.667h494.933l-226.133-226.133c-17.067-17.067-17.067-42.667 0-59.733 8.533-8.533 21.333-12.8 29.867-12.8s21.333 4.267 29.867 12.8l298.667 298.667c4.267 4.267 8.533 8.533 8.533 12.8z" />
<glyph unicode="&#xe913;" glyph-name="arrow-right-circle" d="M512 853.333c-260.267 0-469.333-209.067-469.333-469.333s209.067-469.333 469.333-469.333 469.333 209.067 469.333 469.333-209.067 469.333-469.333 469.333zM512 0c-213.333 0-384 170.667-384 384s170.667 384 384 384c213.333 0 384-170.667 384-384s-170.667-384-384-384zM721.067 401.067c-4.267 4.267-4.267 8.533-8.533 12.8l-170.667 170.667c-17.067 17.067-42.667 17.067-59.733 0s-17.067-42.667 0-59.733l98.133-98.133h-238.933c-25.6 0-42.667-17.067-42.667-42.667s17.067-42.667 42.667-42.667h238.933l-98.133-98.133c-17.067-17.067-17.067-42.667 0-59.733 8.533-8.533 21.333-12.8 29.867-12.8s21.333 4.267 29.867 12.8l170.667 170.667c4.267 4.267 8.533 8.533 8.533 12.8 4.267 12.8 4.267 21.333 0 34.133z" />
<glyph unicode="&#xe914;" glyph-name="arrow-up" d="M840.533 413.867l-298.667 298.667c-4.267 4.267-8.533 8.533-12.8 8.533-8.533 4.267-21.333 4.267-34.133 0-4.267-4.267-8.533-4.267-12.8-8.533l-298.667-298.667c-17.067-17.067-17.067-42.667 0-59.733s42.667-17.067 59.733 0l226.133 226.133v-494.933c0-25.6 17.067-42.667 42.667-42.667s42.667 17.067 42.667 42.667v494.933l226.133-226.133c8.533-8.533 21.333-12.8 29.867-12.8s21.333 4.267 29.867 12.8c17.067 17.067 17.067 42.667 0 59.733z" />
<glyph unicode="&#xe915;" glyph-name="arrow-up-circle" d="M512 853.333c-260.267 0-469.333-209.067-469.333-469.333s209.067-469.333 469.333-469.333 469.333 209.067 469.333 469.333-209.067 469.333-469.333 469.333zM512 0c-213.333 0-384 170.667-384 384s170.667 384 384 384c213.333 0 384-170.667 384-384s-170.667-384-384-384zM541.867 584.533c-4.267 4.267-8.533 8.533-12.8 8.533-8.533 4.267-21.333 4.267-34.133 0-4.267-4.267-8.533-4.267-12.8-8.533l-170.667-170.667c-17.067-17.067-17.067-42.667 0-59.733s42.667-17.067 59.733 0l98.133 98.133v-238.933c0-25.6 17.067-42.667 42.667-42.667s42.667 17.067 42.667 42.667v238.933l98.133-98.133c8.533-8.533 21.333-12.8 29.867-12.8s21.333 4.267 29.867 12.8c17.067 17.067 17.067 42.667 0 59.733l-170.667 170.667z" />
<glyph unicode="&#xe916;" glyph-name="arrow-up-left" d="M401.067 554.667h324.267c25.6 0 42.667 17.067 42.667 42.667s-17.067 42.667-42.667 42.667h-426.667c-4.267 0-12.8 0-17.067-4.267-8.533-4.267-17.067-12.8-21.333-21.333-4.267-4.267-4.267-12.8-4.267-17.067v-426.667c0-25.6 17.067-42.667 42.667-42.667s42.667 17.067 42.667 42.667v324.267l354.133-354.133c8.533-8.533 21.333-12.8 29.867-12.8s21.333 4.267 29.867 12.8c17.067 17.067 17.067 42.667 0 59.733l-354.133 354.133z" />
<glyph unicode="&#xe917;" glyph-name="arrow-up-right" d="M763.733 614.4c-4.267 8.533-12.8 17.067-21.333 21.333-4.267 4.267-12.8 4.267-17.067 4.267h-426.667c-25.6 0-42.667-17.067-42.667-42.667s17.067-42.667 42.667-42.667h324.267l-354.133-354.133c-17.067-17.067-17.067-42.667 0-59.733 8.533-8.533 17.067-12.8 29.867-12.8s21.333 4.267 29.867 12.8l354.133 354.133v-324.267c0-25.6 17.067-42.667 42.667-42.667s42.667 17.067 42.667 42.667v426.667c0 4.267 0 12.8-4.267 17.067z" />
<glyph unicode="&#xe918;" glyph-name="at-sign" d="M512 853.333c-123.733 0-243.2-46.933-332.8-136.533s-136.533-209.067-136.533-332.8c0-260.267 209.067-469.333 469.333-469.333 102.4 0 204.8 34.133 285.867 98.133 17.067 12.8 21.333 42.667 8.533 59.733s-42.667 21.333-59.733 8.533c-68.267-51.2-149.333-81.067-234.667-81.067-213.333 0-384 170.667-384 384 0 102.4 38.4 200.533 110.933 273.067s170.667 110.933 273.067 110.933c213.333 0 384-170.667 384-384v-42.667c0-46.933-38.4-85.333-85.333-85.333s-85.333 38.4-85.333 85.333v213.333c0 25.6-17.067 42.667-42.667 42.667s-42.667-17.067-42.667-42.667v0c-34.133 25.6-81.067 42.667-128 42.667-119.467 0-213.333-93.867-213.333-213.333s93.867-213.333 213.333-213.333c64 0 119.467 29.867 157.867 72.533 29.867-42.667 81.067-72.533 140.8-72.533 93.867 0 170.667 76.8 170.667 170.667v42.667c0 260.267-209.067 469.333-469.333 469.333zM512 256c-72.533 0-128 55.467-128 128s55.467 128 128 128 128-55.467 128-128-55.467-128-128-128z" />
<glyph unicode="&#xe919;" glyph-name="award" d="M853.333 554.667c0 187.733-153.6 341.333-341.333 341.333s-341.333-153.6-341.333-341.333c0-110.933 51.2-209.067 132.267-268.8l-46.933-366.933c-4.267-17.067 4.267-34.133 17.067-42.667s29.867-8.533 46.933 0l192 115.2 192-115.2c4.267-4.267 12.8-4.267 21.333-4.267s17.067 4.267 21.333 8.533 21.333 25.6 17.067 42.667l-46.933 362.667c85.333 59.733 136.533 157.867 136.533 268.8zM256 554.667c0 140.8 115.2 256 256 256s256-115.2 256-256-115.2-256-256-256-256 115.2-256 256zM669.867-4.267l-136.533 81.067c-12.8 8.533-29.867 8.533-42.667 0l-136.533-81.067 29.867 243.2c38.4-17.067 81.067-25.6 128-25.6s89.6 8.533 128 25.6l29.867-243.2z" />
<glyph unicode="&#xe91a;" glyph-name="bar-chart" d="M512 512c-25.6 0-42.667-17.067-42.667-42.667v-426.667c0-25.6 17.067-42.667 42.667-42.667s42.667 17.067 42.667 42.667v426.667c0 25.6-17.067 42.667-42.667 42.667zM768 768c-25.6 0-42.667-17.067-42.667-42.667v-682.667c0-25.6 17.067-42.667 42.667-42.667s42.667 17.067 42.667 42.667v682.667c0 25.6-17.067 42.667-42.667 42.667zM256 256c-25.6 0-42.667-17.067-42.667-42.667v-170.667c0-25.6 17.067-42.667 42.667-42.667s42.667 17.067 42.667 42.667v170.667c0 25.6-17.067 42.667-42.667 42.667z" />
<glyph unicode="&#xe91b;" glyph-name="bar-chart-2" d="M768 512c-25.6 0-42.667-17.067-42.667-42.667v-426.667c0-25.6 17.067-42.667 42.667-42.667s42.667 17.067 42.667 42.667v426.667c0 25.6-17.067 42.667-42.667 42.667zM512 768c-25.6 0-42.667-17.067-42.667-42.667v-682.667c0-25.6 17.067-42.667 42.667-42.667s42.667 17.067 42.667 42.667v682.667c0 25.6-17.067 42.667-42.667 42.667zM256 341.333c-25.6 0-42.667-17.067-42.667-42.667v-256c0-25.6 17.067-42.667 42.667-42.667s42.667 17.067 42.667 42.667v256c0 25.6-17.067 42.667-42.667 42.667z" />
<glyph unicode="&#xe91c;" glyph-name="battery" d="M725.333 682.667h-597.333c-72.533 0-128-55.467-128-128v-341.333c0-72.533 55.467-128 128-128h597.333c72.533 0 128 55.467 128 128v341.333c0 72.533-55.467 128-128 128zM768 213.333c0-25.6-17.067-42.667-42.667-42.667h-597.333c-25.6 0-42.667 17.067-42.667 42.667v341.333c0 25.6 17.067 42.667 42.667 42.667h597.333c25.6 0 42.667-17.067 42.667-42.667v-341.333zM981.333 469.333c-25.6 0-42.667-17.067-42.667-42.667v-85.333c0-25.6 17.067-42.667 42.667-42.667s42.667 17.067 42.667 42.667v85.333c0 25.6-17.067 42.667-42.667 42.667z" />
<glyph unicode="&#xe91d;" glyph-name="battery-charging" d="M213.333 170.667h-85.333c-25.6 0-42.667 17.067-42.667 42.667v341.333c0 25.6 17.067 42.667 42.667 42.667h136.533c25.6 0 42.667 17.067 42.667 42.667s-17.067 42.667-42.667 42.667h-136.533c-72.533 0-128-55.467-128-128v-341.333c0-72.533 55.467-128 128-128h85.333c25.6 0 42.667 17.067 42.667 42.667s-17.067 42.667-42.667 42.667zM725.333 682.667h-85.333c-25.6 0-42.667-17.067-42.667-42.667s17.067-42.667 42.667-42.667h85.333c25.6 0 42.667-17.067 42.667-42.667v-341.333c0-25.6-17.067-42.667-42.667-42.667h-136.533c-25.6 0-42.667-17.067-42.667-42.667s17.067-42.667 42.667-42.667h136.533c72.533 0 128 55.467 128 128v341.333c0 72.533-55.467 128-128 128zM981.333 469.333c-25.6 0-42.667-17.067-42.667-42.667v-85.333c0-25.6 17.067-42.667 42.667-42.667s42.667 17.067 42.667 42.667v85.333c0 25.6-17.067 42.667-42.667 42.667zM593.067 405.333c-8.533 12.8-21.333 21.333-38.4 21.333h-174.933l128 187.733c12.8 21.333 8.533 46.933-12.8 59.733s-46.933 8.533-59.733-12.8l-170.667-256c-8.533-12.8-8.533-29.867 0-42.667 4.267-12.8 17.067-21.333 34.133-21.333h174.933l-128-187.733c-12.8-21.333-8.533-46.933 12.8-59.733 8.533-4.267 17.067-8.533 25.6-8.533 12.8 0 25.6 8.533 34.133 17.067l170.667 256c8.533 17.067 12.8 29.867 4.267 46.933z" />
<glyph unicode="&#xe91e;" glyph-name="bell" d="M605.867 38.4c-21.333 12.8-46.933 4.267-59.733-17.067s-38.4-25.6-59.733-17.067c-8.533 4.267-12.8 8.533-17.067 17.067-12.8 21.333-38.4 25.6-59.733 17.067-21.333-12.8-25.6-38.4-17.067-59.733 12.8-21.333 25.6-34.133 46.933-46.933s42.667-17.067 64-17.067c42.667 0 85.333 21.333 110.933 64 21.333 21.333 12.8 46.933-8.533 59.733zM938.667 213.333c-46.933 0-85.333 38.4-85.333 85.333v213.333c0 187.733-153.6 341.333-341.333 341.333s-341.333-153.6-341.333-341.333v-213.333c0-46.933-38.4-85.333-85.333-85.333-25.6 0-42.667-17.067-42.667-42.667s17.067-42.667 42.667-42.667h853.333c25.6 0 42.667 17.067 42.667 42.667s-17.067 42.667-42.667 42.667zM234.667 213.333c12.8 25.6 21.333 55.467 21.333 85.333v213.333c0 140.8 115.2 256 256 256s256-115.2 256-256v-213.333c0-29.867 8.533-59.733 21.333-85.333h-554.667z" />
<glyph unicode="&#xe91f;" glyph-name="bell-off" d="M605.867 38.4c-21.333 12.8-46.933 4.267-59.733-17.067s-38.4-25.6-59.733-17.067c-8.533 4.267-12.8 8.533-17.067 17.067-12.8 21.333-38.4 25.6-59.733 17.067-21.333-12.8-25.6-38.4-17.067-59.733 12.8-21.333 25.6-34.133 46.933-46.933s42.667-17.067 64-17.067c42.667 0 85.333 21.333 110.933 64 21.333 21.333 12.8 46.933-8.533 59.733zM388.267 733.867c123.733 68.267 277.333 25.6 349.867-98.133 17.067-34.133 29.867-81.067 29.867-123.733v-170.667c0-25.6 17.067-42.667 42.667-42.667s42.667 17.067 42.667 42.667v170.667c0 59.733-17.067 115.2-42.667 166.4-93.867 162.133-302.933 221.867-465.067 128-21.333-8.533-29.867-34.133-17.067-55.467s38.4-25.6 59.733-17.067zM1011.2-55.467l-256 256c0 0 0 0 0 0l-682.667 682.667c-17.067 17.067-42.667 17.067-59.733 0s-17.067-42.667 0-59.733l183.467-183.467c-17.067-42.667-25.6-85.333-25.6-128v-213.333c0-46.933-38.4-85.333-85.333-85.333-25.6 0-42.667-17.067-42.667-42.667s17.067-42.667 42.667-42.667h622.933l243.2-243.2c8.533-8.533 21.333-12.8 29.867-12.8s21.333 4.267 29.867 12.8c17.067 17.067 17.067 42.667 0 59.733zM234.667 213.333c12.8 25.6 21.333 55.467 21.333 85.333v213.333c0 21.333 4.267 42.667 8.533 59.733l358.4-358.4h-388.267z" />
<glyph unicode="&#xe920;" glyph-name="bluetooth" d="M571.733 384l204.8 204.8c17.067 17.067 17.067 42.667 0 59.733l-234.667 234.667c-12.8 12.8-29.867 17.067-46.933 8.533-17.067-4.267-25.6-21.333-25.6-38.4v-366.933l-162.133 162.133c-17.067 17.067-42.667 17.067-59.733 0s-17.067-42.667 0-59.733l204.8-204.8-204.8-204.8c-17.067-17.067-17.067-42.667 0-59.733s42.667-17.067 59.733 0l162.133 162.133v-366.933c0-17.067 8.533-34.133 25.6-38.4 4.267-4.267 12.8-4.267 17.067-4.267 12.8 0 21.333 4.267 29.867 12.8l234.667 234.667c17.067 17.067 17.067 42.667 0 59.733l-204.8 204.8zM554.667 750.933l132.267-132.267-132.267-132.267v264.533zM554.667 17.067v264.533l132.267-132.267-132.267-132.267z" />
<glyph unicode="&#xe921;" glyph-name="bold" d="M742.4 401.067c42.667 38.4 68.267 93.867 68.267 153.6 0 119.467-93.867 213.333-213.333 213.333h-341.333c-25.6 0-42.667-17.067-42.667-42.667v-682.667c0-25.6 17.067-42.667 42.667-42.667h384c119.467 0 213.333 93.867 213.333 213.333 0 81.067-46.933 149.333-110.933 187.733zM298.667 682.667h298.667c72.533 0 128-55.467 128-128s-55.467-128-128-128h-298.667v256zM640 85.333h-341.333v256h341.333c72.533 0 128-55.467 128-128s-55.467-128-128-128z" />
<glyph unicode="&#xe922;" glyph-name="book" d="M853.333 853.333h-576c-81.067 0-149.333-68.267-149.333-149.333v-640c0-81.067 68.267-149.333 149.333-149.333h576c25.6 0 42.667 17.067 42.667 42.667v853.333c0 25.6-17.067 42.667-42.667 42.667zM277.333 768h533.333v-554.667h-533.333c-21.333 0-42.667-4.267-64-17.067v507.733c0 34.133 29.867 64 64 64zM277.333 0c-34.133 0-64 29.867-64 64s29.867 64 64 64h533.333v-128h-533.333z" />
<glyph unicode="&#xe923;" glyph-name="book-open" d="M938.667 810.667h-256c-68.267 0-132.267-34.133-170.667-85.333-38.4 51.2-102.4 85.333-170.667 85.333h-256c-25.6 0-42.667-17.067-42.667-42.667v-640c0-25.6 17.067-42.667 42.667-42.667h298.667c46.933 0 85.333-38.4 85.333-85.333 0-25.6 17.067-42.667 42.667-42.667s42.667 17.067 42.667 42.667c0 46.933 38.4 85.333 85.333 85.333h298.667c25.6 0 42.667 17.067 42.667 42.667v640c0 25.6-17.067 42.667-42.667 42.667zM469.333 149.333c-25.6 12.8-55.467 21.333-85.333 21.333h-256v554.667h213.333c72.533 0 128-55.467 128-128v-448zM896 170.667h-256c-29.867 0-59.733-8.533-85.333-21.333v448c0 72.533 55.467 128 128 128h213.333v-554.667z" />
<glyph unicode="&#xe924;" glyph-name="bookmark" d="M725.333 810.667h-426.667c-72.533 0-128-55.467-128-128v-682.667c0-17.067 8.533-29.867 21.333-38.4s29.867-4.267 42.667 4.267l273.067 196.267 273.067-196.267c8.533-4.267 17.067-8.533 25.6-8.533s12.8 0 21.333 4.267c12.8 8.533 21.333 21.333 21.333 38.4v682.667c4.267 72.533-51.2 128-123.733 128zM768 81.067l-230.4 166.4c-8.533 4.267-17.067 8.533-25.6 8.533s-17.067-4.267-25.6-8.533l-230.4-166.4v601.6c0 25.6 17.067 42.667 42.667 42.667h426.667c25.6 0 42.667-17.067 42.667-42.667v-601.6z" />
<glyph unicode="&#xe925;" glyph-name="box" d="M908.8 699.733l-341.333 170.667c0 0 0 0 0 0-34.133 17.067-76.8 17.067-115.2 0l-341.333-170.667c-42.667-21.333-68.267-64-68.267-110.933v-405.333c0-46.933 25.6-93.867 72.533-115.2l341.333-170.667c17.067-8.533 38.4-12.8 55.467-12.8 21.333 0 38.4 4.267 55.467 12.8l341.333 170.667c42.667 21.333 72.533 64 72.533 115.2v405.333c0 46.933-25.6 89.6-72.533 110.933zM494.933 797.867c4.267 4.267 12.8 4.267 17.067 4.267 8.533 0 12.8 0 17.067-4.267l315.733-157.867-332.8-166.4-332.8 166.4 315.733 157.867zM149.333 140.8c-12.8 8.533-21.333 25.6-21.333 38.4v392.533l341.333-170.667v-418.133l-320 157.867zM870.4 140.8l-315.733-157.867v418.133l341.333 170.667v-392.533c0-17.067-8.533-29.867-25.6-38.4z" />
<glyph unicode="&#xe926;" glyph-name="briefcase" d="M853.333 640h-128v42.667c0 72.533-55.467 128-128 128h-170.667c-72.533 0-128-55.467-128-128v-42.667h-128c-72.533 0-128-55.467-128-128v-426.667c0-72.533 55.467-128 128-128h682.667c72.533 0 128 55.467 128 128v426.667c0 72.533-55.467 128-128 128zM384 682.667c0 25.6 17.067 42.667 42.667 42.667h170.667c25.6 0 42.667-17.067 42.667-42.667v-42.667h-256v42.667zM640 554.667v-512h-256v512h256zM128 85.333v426.667c0 25.6 17.067 42.667 42.667 42.667h128v-512h-128c-25.6 0-42.667 17.067-42.667 42.667zM896 85.333c0-25.6-17.067-42.667-42.667-42.667h-128v512h128c25.6 0 42.667-17.067 42.667-42.667v-426.667z" />
<glyph unicode="&#xe927;" glyph-name="calendar" d="M810.667 768h-85.333v42.667c0 25.6-17.067 42.667-42.667 42.667s-42.667-17.067-42.667-42.667v-42.667h-256v42.667c0 25.6-17.067 42.667-42.667 42.667s-42.667-17.067-42.667-42.667v-42.667h-85.333c-72.533 0-128-55.467-128-128v-597.333c0-72.533 55.467-128 128-128h597.333c72.533 0 128 55.467 128 128v597.333c0 72.533-55.467 128-128 128zM213.333 682.667h85.333v-42.667c0-25.6 17.067-42.667 42.667-42.667s42.667 17.067 42.667 42.667v42.667h256v-42.667c0-25.6 17.067-42.667 42.667-42.667s42.667 17.067 42.667 42.667v42.667h85.333c25.6 0 42.667-17.067 42.667-42.667v-128h-682.667v128c0 25.6 17.067 42.667 42.667 42.667zM810.667 0h-597.333c-25.6 0-42.667 17.067-42.667 42.667v384h682.667v-384c0-25.6-17.067-42.667-42.667-42.667z" />
<glyph unicode="&#xe928;" glyph-name="camera" d="M896 682.667h-149.333l-72.533 110.933c-8.533 8.533-21.333 17.067-34.133 17.067h-256c-12.8 0-25.6-8.533-34.133-17.067l-72.533-110.933h-149.333c-72.533 0-128-55.467-128-128v-469.333c0-72.533 55.467-128 128-128h768c72.533 0 128 55.467 128 128v469.333c0 72.533-55.467 128-128 128zM938.667 85.333c0-25.6-17.067-42.667-42.667-42.667h-768c-25.6 0-42.667 17.067-42.667 42.667v469.333c0 25.6 17.067 42.667 42.667 42.667h170.667c12.8 0 25.6 8.533 34.133 17.067l72.533 110.933h209.067l72.533-110.933c12.8-8.533 25.6-17.067 38.4-17.067h170.667c25.6 0 42.667-17.067 42.667-42.667v-469.333zM512 554.667c-119.467 0-213.333-93.867-213.333-213.333s93.867-213.333 213.333-213.333 213.333 93.867 213.333 213.333-93.867 213.333-213.333 213.333zM512 213.333c-72.533 0-128 55.467-128 128s55.467 128 128 128 128-55.467 128-128-55.467-128-128-128z" />
<glyph unicode="&#xe929;" glyph-name="camera-off" d="M925.867 29.867c0 0 0 0 0 0l-640 640c0 0 0 0 0 0l-213.333 213.333c-17.067 17.067-42.667 17.067-59.733 0s-17.067-42.667 0-59.733l140.8-140.8h-25.6c-72.533 0-128-55.467-128-128v-469.333c0-72.533 55.467-128 128-128h750.933l72.533-72.533c8.533-8.533 21.333-12.8 29.867-12.8s21.333 4.267 29.867 12.8c17.067 17.067 17.067 42.667 0 59.733l-85.333 85.333zM405.333 413.867c4.267 4.267 4.267 4.267 8.533 8.533l179.2-179.2c-17.067-12.8-38.4-25.6-59.733-29.867-34.133-4.267-68.267 0-93.867 21.333-29.867 21.333-46.933 46.933-55.467 81.067-4.267 34.133 4.267 68.267 21.333 98.133zM128 42.667c-25.6 0-42.667 17.067-42.667 42.667v469.333c0 25.6 17.067 42.667 42.667 42.667h110.933l115.2-115.2c-8.533-8.533-12.8-12.8-17.067-21.333-34.133-46.933-42.667-102.4-34.133-157.867s42.667-106.667 89.6-136.533c34.133-25.6 76.8-38.4 119.467-38.4 12.8 0 25.6 0 38.4 4.267 38.4 8.533 72.533 25.6 102.4 51.2l140.8-140.8h-665.6zM896 682.667h-149.333l-72.533 110.933c-8.533 8.533-21.333 17.067-34.133 17.067h-256c-25.6 0-42.667-17.067-42.667-42.667s17.067-42.667 42.667-42.667h234.667l72.533-110.933c8.533-8.533 21.333-17.067 34.133-17.067h170.667c25.6 0 42.667-17.067 42.667-42.667v-396.8c0-25.6 17.067-42.667 42.667-42.667s42.667 17.067 42.667 42.667v396.8c0 72.533-55.467 128-128 128z" />
<glyph unicode="&#xe92a;" glyph-name="cast" d="M93.867 251.733c-21.333 4.267-46.933-12.8-51.2-34.133s8.533-46.933 34.133-51.2c68.267-12.8 119.467-64 132.267-132.267 4.267-21.333 21.333-34.133 42.667-34.133 4.267 0 4.267 0 8.533 0 21.333 4.267 38.4 25.6 34.133 51.2-21.333 102.4-98.133 179.2-200.533 200.533zM853.333 768h-682.667c-72.533 0-128-55.467-128-128v-85.333c0-25.6 17.067-42.667 42.667-42.667s42.667 17.067 42.667 42.667v85.333c0 25.6 17.067 42.667 42.667 42.667h682.667c25.6 0 42.667-17.067 42.667-42.667v-512c0-25.6-17.067-42.667-42.667-42.667h-256c-25.6 0-42.667-17.067-42.667-42.667s17.067-42.667 42.667-42.667h256c72.533 0 128 55.467 128 128v512c0 72.533-55.467 128-128 128zM89.6 422.4c-21.333 4.267-42.667-12.8-46.933-38.4-4.267-21.333 12.8-42.667 38.4-46.933 157.867-17.067 281.6-140.8 302.933-302.933 0-17.067 17.067-34.133 38.4-34.133 0 0 4.267 0 4.267 0 21.333 4.267 38.4 25.6 38.4 46.933-21.333 200.533-174.933 354.133-375.467 375.467zM55.467 72.533c-8.533-8.533-12.8-17.067-12.8-29.867s4.267-21.333 12.8-29.867c8.533-8.533 17.067-12.8 29.867-12.8s21.333 4.267 29.867 12.8c8.533 8.533 12.8 17.067 12.8 29.867s-4.267 21.333-12.8 29.867c-17.067 17.067-42.667 17.067-59.733 0z" />
<glyph unicode="&#xe92b;" glyph-name="check" d="M883.2 669.867c-17.067 17.067-42.667 17.067-59.733 0l-439.467-439.467-183.467 183.467c-17.067 17.067-42.667 17.067-59.733 0s-17.067-42.667 0-59.733l213.333-213.333c8.533-8.533 17.067-12.8 29.867-12.8s21.333 4.267 29.867 12.8l469.333 469.333c17.067 17.067 17.067 42.667 0 59.733z" />
<glyph unicode="&#xe92c;" glyph-name="check-circle" d="M938.667 465.067c-25.6 0-42.667-17.067-42.667-42.667v-38.4c0-213.333-170.667-384-384-384 0 0 0 0 0 0-213.333 0-384 170.667-384 384s170.667 384 384 384c0 0 0 0 0 0 55.467 0 106.667-12.8 157.867-34.133 21.333-8.533 46.933 0 55.467 21.333s0 46.933-21.333 55.467c-59.733 25.6-123.733 42.667-192 42.667 0 0 0 0 0 0-260.267 0-469.333-209.067-469.333-469.333s209.067-469.333 469.333-469.333c0 0 0 0 0 0 260.267 0 469.333 209.067 469.333 469.333v38.4c0 25.6-17.067 42.667-42.667 42.667zM413.867 456.533c-17.067 17.067-42.667 17.067-59.733 0s-17.067-42.667 0-59.733l128-128c8.533-8.533 17.067-12.8 29.867-12.8s21.333 4.267 29.867 12.8l426.667 426.667c17.067 17.067 17.067 42.667 0 59.733s-42.667 17.067-59.733 0l-396.8-396.8-98.133 98.133z" />
<glyph unicode="&#xe92d;" glyph-name="check-square" d="M968.533 755.2c-17.067 17.067-42.667 17.067-59.733 0l-396.8-396.8-98.133 98.133c-17.067 17.067-42.667 17.067-59.733 0s-17.067-42.667 0-59.733l128-128c8.533-8.533 21.333-12.8 29.867-12.8s21.333 4.267 29.867 12.8l426.667 426.667c17.067 17.067 17.067 42.667 0 59.733zM896 426.667c-25.6 0-42.667-17.067-42.667-42.667v-298.667c0-25.6-17.067-42.667-42.667-42.667h-597.333c-25.6 0-42.667 17.067-42.667 42.667v597.333c0 25.6 17.067 42.667 42.667 42.667h469.333c25.6 0 42.667 17.067 42.667 42.667s-17.067 42.667-42.667 42.667h-469.333c-72.533 0-128-55.467-128-128v-597.333c0-72.533 55.467-128 128-128h597.333c72.533 0 128 55.467 128 128v298.667c0 25.6-17.067 42.667-42.667 42.667z" />
<glyph unicode="&#xe92e;" glyph-name="chevron-down" d="M797.867 541.867c-17.067 17.067-42.667 17.067-59.733 0l-226.133-226.133-226.133 226.133c-17.067 17.067-42.667 17.067-59.733 0s-17.067-42.667 0-59.733l256-256c8.533-8.533 21.333-12.8 29.867-12.8s21.333 4.267 29.867 12.8l256 256c17.067 17.067 17.067 42.667 0 59.733z" />
<glyph unicode="&#xe92f;" glyph-name="chevron-left" d="M443.733 384l226.133 226.133c17.067 17.067 17.067 42.667 0 59.733s-42.667 17.067-59.733 0l-256-256c-17.067-17.067-17.067-42.667 0-59.733l256-256c8.533-8.533 21.333-12.8 29.867-12.8s21.333 4.267 29.867 12.8c17.067 17.067 17.067 42.667 0 59.733l-226.133 226.133z" />
<glyph unicode="&#xe930;" glyph-name="chevron-right" d="M669.867 413.867l-256 256c-17.067 17.067-42.667 17.067-59.733 0s-17.067-42.667 0-59.733l226.133-226.133-226.133-226.133c-17.067-17.067-17.067-42.667 0-59.733 8.533-8.533 17.067-12.8 29.867-12.8s21.333 4.267 29.867 12.8l256 256c17.067 17.067 17.067 42.667 0 59.733z" />
<glyph unicode="&#xe931;" glyph-name="chevron-up" d="M797.867 285.867l-256 256c-17.067 17.067-42.667 17.067-59.733 0l-256-256c-17.067-17.067-17.067-42.667 0-59.733s42.667-17.067 59.733 0l226.133 226.133 226.133-226.133c8.533-8.533 21.333-12.8 29.867-12.8s21.333 4.267 29.867 12.8c17.067 17.067 17.067 42.667 0 59.733z" />
<glyph unicode="&#xe932;" glyph-name="chevrons-down" d="M695.467 371.2l-183.467-183.467-183.467 183.467c-17.067 17.067-42.667 17.067-59.733 0s-17.067-42.667 0-59.733l213.333-213.333c8.533-8.533 21.333-12.8 29.867-12.8s21.333 4.267 29.867 12.8l213.333 213.333c17.067 17.067 17.067 42.667 0 59.733s-42.667 17.067-59.733 0zM482.133 396.8c8.533-8.533 21.333-12.8 29.867-12.8s21.333 4.267 29.867 12.8l213.333 213.333c17.067 17.067 17.067 42.667 0 59.733s-42.667 17.067-59.733 0l-183.467-183.467-183.467 183.467c-17.067 17.067-42.667 17.067-59.733 0s-17.067-42.667 0-59.733l213.333-213.333z" />
<glyph unicode="&#xe933;" glyph-name="chevrons-left" d="M315.733 384l183.467 183.467c17.067 17.067 17.067 42.667 0 59.733s-42.667 17.067-59.733 0l-213.333-213.333c-17.067-17.067-17.067-42.667 0-59.733l213.333-213.333c8.533-8.533 21.333-12.8 29.867-12.8s21.333 4.267 29.867 12.8c17.067 17.067 17.067 42.667 0 59.733l-183.467 183.467zM614.4 384l183.467 183.467c17.067 17.067 17.067 42.667 0 59.733s-42.667 17.067-59.733 0l-213.333-213.333c-17.067-17.067-17.067-42.667 0-59.733l213.333-213.333c8.533-8.533 21.333-12.8 29.867-12.8s21.333 4.267 29.867 12.8c17.067 17.067 17.067 42.667 0 59.733l-183.467 183.467z" />
<glyph unicode="&#xe934;" glyph-name="chevrons-right" d="M797.867 413.867l-213.333 213.333c-17.067 17.067-42.667 17.067-59.733 0s-17.067-42.667 0-59.733l183.467-183.467-183.467-183.467c-17.067-17.067-17.067-42.667 0-59.733 8.533-8.533 21.333-12.8 29.867-12.8s21.333 4.267 29.867 12.8l213.333 213.333c17.067 17.067 17.067 42.667 0 59.733zM499.2 413.867l-213.333 213.333c-17.067 17.067-42.667 17.067-59.733 0s-17.067-42.667 0-59.733l183.467-183.467-183.467-183.467c-17.067-17.067-17.067-42.667 0-59.733 8.533-8.533 17.067-12.8 29.867-12.8s21.333 4.267 29.867 12.8l213.333 213.333c17.067 17.067 17.067 42.667 0 59.733z" />
<glyph unicode="&#xe935;" glyph-name="chevrons-up" d="M328.533 396.8l183.467 183.467 183.467-183.467c8.533-8.533 21.333-12.8 29.867-12.8s21.333 4.267 29.867 12.8c17.067 17.067 17.067 42.667 0 59.733l-213.333 213.333c-17.067 17.067-42.667 17.067-59.733 0l-213.333-213.333c-17.067-17.067-17.067-42.667 0-59.733s42.667-17.067 59.733 0zM541.867 371.2c-17.067 17.067-42.667 17.067-59.733 0l-213.333-213.333c-17.067-17.067-17.067-42.667 0-59.733s42.667-17.067 59.733 0l183.467 183.467 183.467-183.467c8.533-8.533 21.333-12.8 29.867-12.8s21.333 4.267 29.867 12.8c17.067 17.067 17.067 42.667 0 59.733l-213.333 213.333z" />
<glyph unicode="&#xe936;" glyph-name="chrome" d="M942.933 567.467c0 4.267 0 4.267 0 0-76.8 170.667-238.933 285.867-430.933 285.867-153.6 0-290.133-72.533-375.467-187.733 0-4.267-4.267-4.267-4.267-8.533-55.467-76.8-89.6-170.667-89.6-273.067 0-238.933 179.2-435.2 409.6-465.067 0 0 4.267 0 4.267 0 17.067 0 34.133-4.267 51.2-4.267 260.267 0 469.333 209.067 469.333 469.333 4.267 64-8.533 128-34.133 183.467zM512 768c132.267 0 251.733-68.267 320-170.667h-320c-89.6 0-162.133-55.467-196.267-128l-93.867 162.133c68.267 85.333 174.933 136.533 290.133 136.533zM640 384c0-72.533-55.467-128-128-128s-128 55.467-128 128 55.467 128 128 128 128-55.467 128-128zM128 384c0 59.733 12.8 119.467 38.4 170.667l157.867-277.333c0 0 0-4.267 4.267-4.267 38.4-59.733 106.667-102.4 183.467-102.4 8.533 0 17.067 0 25.6 4.267l-98.133-166.4c-174.933 29.867-311.467 187.733-311.467 375.467zM537.6 0l157.867 277.333c0 0 0 4.267 0 4.267 17.067 29.867 25.6 64 25.6 102.4 0 46.933-17.067 93.867-42.667 128h192c12.8-38.4 21.333-81.067 21.333-128 4.267-204.8-153.6-371.2-354.133-384z" />
<glyph unicode="&#xe937;" glyph-name="circle" d="M512 853.333c-260.267 0-469.333-209.067-469.333-469.333s209.067-469.333 469.333-469.333 469.333 209.067 469.333 469.333-209.067 469.333-469.333 469.333zM512 0c-213.333 0-384 170.667-384 384s170.667 384 384 384c213.333 0 384-170.667 384-384s-170.667-384-384-384z" />
<glyph unicode="&#xe938;" glyph-name="clipboard" d="M768 768h-42.667c0 46.933-38.4 85.333-85.333 85.333h-256c-46.933 0-85.333-38.4-85.333-85.333h-42.667c-72.533 0-128-55.467-128-128v-597.333c0-72.533 55.467-128 128-128h512c72.533 0 128 55.467 128 128v597.333c0 72.533-55.467 128-128 128zM384 768h256v-85.333h-256v42.667c0 0 0 0 0 0s0 0 0 0v42.667zM810.667 42.667c0-25.6-17.067-42.667-42.667-42.667h-512c-25.6 0-42.667 17.067-42.667 42.667v597.333c0 25.6 17.067 42.667 42.667 42.667h42.667c0-46.933 38.4-85.333 85.333-85.333h256c46.933 0 85.333 38.4 85.333 85.333h42.667c25.6 0 42.667-17.067 42.667-42.667v-597.333z" />
<glyph unicode="&#xe939;" glyph-name="clock" d="M512 853.333c-260.267 0-469.333-209.067-469.333-469.333s209.067-469.333 469.333-469.333 469.333 209.067 469.333 469.333-209.067 469.333-469.333 469.333zM512 0c-213.333 0-384 170.667-384 384s170.667 384 384 384c213.333 0 384-170.667 384-384s-170.667-384-384-384zM699.733 337.067l-145.067 72.533v230.4c0 25.6-17.067 42.667-42.667 42.667s-42.667-17.067-42.667-42.667v-256c0-17.067 8.533-29.867 25.6-38.4l170.667-85.333c4.267-4.267 8.533-4.267 17.067-4.267 17.067 0 29.867 8.533 38.4 25.6s0 42.667-21.333 55.467z" />
<glyph unicode="&#xe93a;" glyph-name="cloud" d="M768 512h-21.333c-29.867 85.333-89.6 157.867-166.4 204.8-89.6 51.2-192 68.267-290.133 42.667-102.4-29.867-183.467-93.867-238.933-179.2-51.2-89.6-68.267-192-42.667-290.133 42.667-170.667 196.267-290.133 371.2-290.133 0 0 0 0 0 0h384c140.8 0 256 115.2 256 256s-110.933 256-251.733 256zM768 85.333h-384c0 0 0 0 0 0-136.533 0-256 93.867-290.133 221.867-21.333 81.067-8.533 157.867 34.133 230.4s106.667 119.467 183.467 136.533c21.333 4.267 46.933 8.533 72.533 8.533 132.267 0 256-89.6 290.133-226.133 4.267-17.067 21.333-34.133 42.667-34.133h51.2c93.867 0 170.667-76.8 170.667-170.667 0-89.6-76.8-166.4-170.667-166.4z" />
<glyph unicode="&#xe93b;" glyph-name="cloud-drizzle" d="M341.333 128c-25.6 0-42.667-17.067-42.667-42.667v-85.333c0-25.6 17.067-42.667 42.667-42.667s42.667 17.067 42.667 42.667v85.333c0 25.6-17.067 42.667-42.667 42.667zM341.333 384c-25.6 0-42.667-17.067-42.667-42.667v-85.333c0-25.6 17.067-42.667 42.667-42.667s42.667 17.067 42.667 42.667v85.333c0 25.6-17.067 42.667-42.667 42.667zM682.667 128c-25.6 0-42.667-17.067-42.667-42.667v-85.333c0-25.6 17.067-42.667 42.667-42.667s42.667 17.067 42.667 42.667v85.333c0 25.6-17.067 42.667-42.667 42.667zM682.667 384c-25.6 0-42.667-17.067-42.667-42.667v-85.333c0-25.6 17.067-42.667 42.667-42.667s42.667 17.067 42.667 42.667v85.333c0 25.6-17.067 42.667-42.667 42.667zM512 42.667c-25.6 0-42.667-17.067-42.667-42.667v-85.333c0-25.6 17.067-42.667 42.667-42.667s42.667 17.067 42.667 42.667v85.333c0 25.6-17.067 42.667-42.667 42.667zM512 298.667c-25.6 0-42.667-17.067-42.667-42.667v-85.333c0-25.6 17.067-42.667 42.667-42.667s42.667 17.067 42.667 42.667v85.333c0 25.6-17.067 42.667-42.667 42.667zM1002.667 486.4c-42.667 93.867-132.267 153.6-234.667 153.6h-21.333c-64 187.733-264.533 294.4-456.533 243.2-209.067-51.2-332.8-260.267-277.333-469.333 21.333-81.067 68.267-153.6 132.267-204.8 17.067-12.8 46.933-12.8 59.733 8.533 12.8 17.067 12.8 46.933-8.533 59.733-51.2 38.4-85.333 98.133-102.4 157.867-42.667 157.867 55.467 324.267 213.333 362.667 157.867 42.667 324.267-55.467 362.667-213.333 4.267-17.067 21.333-34.133 42.667-34.133h55.467c68.267 0 128-38.4 157.867-102.4 17.067-42.667 21.333-89.6 4.267-132.267s-46.933-76.8-89.6-93.867c-21.333-8.533-29.867-34.133-21.333-55.467 8.533-17.067 21.333-25.6 38.4-25.6 4.267 0 12.8 0 17.067 4.267 64 25.6 110.933 76.8 136.533 140.8 21.333 68.267 17.067 136.533-8.533 200.533z" />
<glyph unicode="&#xe93c;" glyph-name="cloud-lightning" d="M1019.733 435.2c-25.6 119.467-132.267 204.8-251.733 204.8 0 0 0 0 0 0h-21.333c-64 187.733-264.533 294.4-456.533 243.2-102.4-25.6-183.467-89.6-238.933-174.933-51.2-89.6-68.267-192-42.667-290.133 25.6-102.4 93.867-187.733 187.733-238.933 21.333-12.8 46.933-8.533 59.733 12.8s4.267 46.933-17.067 59.733c-72.533 38.4-123.733 106.667-145.067 187.733-21.333 76.8-8.533 153.6 34.133 226.133 38.4 68.267 106.667 119.467 183.467 136.533 157.867 42.667 324.267-55.467 362.667-213.333 4.267-17.067 21.333-34.133 42.667-34.133h51.2c0 0 0 0 0 0 81.067 0 149.333-55.467 166.4-136.533 17.067-93.867-42.667-183.467-132.267-200.533-21.333-4.267-38.4-25.6-34.133-51.2 4.267-21.333 21.333-34.133 42.667-34.133 4.267 0 4.267 0 8.533 0 136.533 29.867 226.133 166.4 200.533 302.933zM640 213.333h-174.933l128 187.733c12.8 21.333 8.533 46.933-12.8 59.733s-46.933 8.533-59.733-12.8l-170.667-256c-8.533-12.8-8.533-29.867 0-42.667 4.267-12.8 17.067-21.333 34.133-21.333h174.933l-128-187.733c-12.8-21.333-8.533-46.933 12.8-59.733 8.533-4.267 17.067-8.533 25.6-8.533 12.8 0 25.6 8.533 34.133 17.067l170.667 256c8.533 12.8 8.533 29.867 0 42.667s-17.067 25.6-34.133 25.6z" />
<glyph unicode="&#xe93d;" glyph-name="cloud-off" d="M409.6 682.667c128-12.8 230.4-102.4 264.533-221.867 4.267-17.067 21.333-34.133 42.667-34.133h51.2c0 0 0 0 0 0 21.333 0 46.933-4.267 68.267-12.8 85.333-38.4 128-136.533 89.6-221.867-8.533-21.333 0-46.933 21.333-55.467 4.267-4.267 12.8-4.267 17.067-4.267 17.067 0 34.133 8.533 38.4 25.6 55.467 128-4.267 281.6-136.533 337.067-29.867 8.533-64 17.067-98.133 17.067h-21.333c-51.2 140.8-179.2 243.2-328.533 256-25.6 0-42.667-17.067-46.933-38.4-4.267-25.6 17.067-42.667 38.4-46.933zM72.533 883.2c-17.067 17.067-42.667 17.067-59.733 0s-17.067-42.667 0-59.733l132.267-132.267c-64-51.2-110.933-119.467-136.533-200.533-29.867-98.133-17.067-200.533 34.133-290.133 68.267-123.733 196.267-200.533 337.067-200.533 0 0 4.267 0 4.267 0h384c21.333 0 38.4 4.267 59.733 8.533l123.733-123.733c8.533-8.533 21.333-12.8 29.867-12.8s21.333 4.267 29.867 12.8c17.067 17.067 17.067 42.667 0 59.733l-938.667 938.667zM384 85.333c-110.933-4.267-213.333 55.467-264.533 153.6-38.4 68.267-46.933 149.333-25.6 226.133 17.067 68.267 59.733 123.733 115.2 162.133l541.867-541.867h-366.933z" />
<glyph unicode="&#xe93e;" glyph-name="cloud-rain" d="M682.667 384c-25.6 0-42.667-17.067-42.667-42.667v-341.333c0-25.6 17.067-42.667 42.667-42.667s42.667 17.067 42.667 42.667v341.333c0 25.6-17.067 42.667-42.667 42.667zM341.333 384c-25.6 0-42.667-17.067-42.667-42.667v-341.333c0-25.6 17.067-42.667 42.667-42.667s42.667 17.067 42.667 42.667v341.333c0 25.6-17.067 42.667-42.667 42.667zM512 298.667c-25.6 0-42.667-17.067-42.667-42.667v-341.333c0-25.6 17.067-42.667 42.667-42.667s42.667 17.067 42.667 42.667v341.333c0 25.6-17.067 42.667-42.667 42.667zM1002.667 486.4c-42.667 93.867-132.267 153.6-234.667 153.6h-21.333c-64 187.733-264.533 294.4-456.533 243.2-209.067-51.2-332.8-260.267-277.333-469.333 21.333-81.067 68.267-153.6 132.267-204.8 17.067-12.8 46.933-12.8 59.733 8.533 12.8 17.067 12.8 46.933-8.533 59.733-51.2 38.4-85.333 98.133-102.4 157.867-42.667 157.867 55.467 324.267 213.333 362.667 157.867 42.667 324.267-55.467 362.667-213.333 4.267-17.067 21.333-34.133 42.667-34.133h55.467c68.267 0 128-38.4 157.867-102.4 17.067-42.667 21.333-89.6 4.267-132.267s-46.933-76.8-89.6-93.867c-21.333-8.533-29.867-34.133-21.333-55.467 8.533-17.067 21.333-25.6 38.4-25.6 4.267 0 12.8 0 17.067 4.267 64 25.6 110.933 76.8 136.533 140.8 21.333 68.267 17.067 136.533-8.533 200.533z" />
<glyph unicode="&#xe93f;" glyph-name="cloud-snow" d="M1002.667 443.733c-42.667 93.867-132.267 153.6-234.667 153.6h-21.333c-64 187.733-264.533 294.4-456.533 243.2-209.067-51.2-332.8-260.267-277.333-469.333 21.333-81.067 68.267-153.6 132.267-204.8 17.067-12.8 46.933-12.8 59.733 8.533 12.8 17.067 12.8 46.933-8.533 59.733-51.2 38.4-85.333 98.133-102.4 157.867-42.667 157.867 55.467 324.267 213.333 362.667 157.867 42.667 324.267-55.467 362.667-213.333 4.267-17.067 21.333-34.133 42.667-34.133h55.467c68.267 0 128-38.4 157.867-102.4 17.067-42.667 21.333-89.6 4.267-132.267s-46.933-76.8-89.6-93.867c-21.333-8.533-29.867-34.133-21.333-55.467 8.533-17.067 21.333-25.6 38.4-25.6 4.267 0 12.8 0 17.067 4.267 64 25.6 110.933 76.8 136.533 140.8 21.333 68.267 17.067 136.533-8.533 200.533zM311.467 243.2c-8.533-8.533-12.8-17.067-12.8-29.867s4.267-21.333 12.8-29.867c8.533-8.533 17.067-12.8 29.867-12.8s21.333 4.267 29.867 12.8c8.533 8.533 12.8 17.067 12.8 29.867s-4.267 21.333-12.8 29.867c-17.067 17.067-42.667 17.067-59.733 0zM311.467 72.533c-8.533-8.533-12.8-17.067-12.8-29.867s4.267-21.333 12.8-29.867c8.533-8.533 17.067-12.8 29.867-12.8s21.333 4.267 29.867 12.8c8.533 8.533 12.8 17.067 12.8 29.867s-4.267 21.333-12.8 29.867c-17.067 17.067-42.667 17.067-59.733 0zM482.133 157.867c-8.533-8.533-12.8-17.067-12.8-29.867s4.267-21.333 12.8-29.867c8.533-8.533 17.067-12.8 29.867-12.8s21.333 4.267 29.867 12.8c8.533 8.533 12.8 21.333 12.8 29.867s-4.267 21.333-12.8 29.867c-17.067 17.067-42.667 17.067-59.733 0zM482.133-12.8c-8.533-8.533-12.8-17.067-12.8-29.867s4.267-21.333 12.8-29.867c8.533-8.533 17.067-12.8 29.867-12.8s21.333 4.267 29.867 12.8c8.533 8.533 12.8 21.333 12.8 29.867s-4.267 21.333-12.8 29.867c-17.067 17.067-42.667 17.067-59.733 0zM652.8 243.2c-8.533-8.533-12.8-17.067-12.8-29.867s4.267-21.333 12.8-29.867c8.533-8.533 21.333-12.8 29.867-12.8s21.333 4.267 29.867 12.8c8.533 8.533 12.8 21.333 12.8 29.867s-4.267 21.333-12.8 29.867c-17.067 17.067-42.667 17.067-59.733 0zM652.8 72.533c-8.533-8.533-12.8-17.067-12.8-29.867s4.267-21.333 12.8-29.867c8.533-8.533 21.333-12.8 29.867-12.8s21.333 4.267 29.867 12.8c8.533 8.533 12.8 21.333 12.8 29.867s-4.267 21.333-12.8 29.867c-17.067 17.067-42.667 17.067-59.733 0z" />
<glyph unicode="&#xe940;" glyph-name="code" d="M968.533 413.867l-256 256c-17.067 17.067-42.667 17.067-59.733 0s-17.067-42.667 0-59.733l226.133-226.133-226.133-226.133c-17.067-17.067-17.067-42.667 0-59.733 8.533-8.533 21.333-12.8 29.867-12.8s21.333 4.267 29.867 12.8l256 256c17.067 17.067 17.067 42.667 0 59.733zM371.2 669.867c-17.067 17.067-42.667 17.067-59.733 0l-256-256c-17.067-17.067-17.067-42.667 0-59.733l256-256c8.533-8.533 17.067-12.8 29.867-12.8s21.333 4.267 29.867 12.8c17.067 17.067 17.067 42.667 0 59.733l-226.133 226.133 226.133 226.133c17.067 17.067 17.067 42.667 0 59.733z" />
<glyph unicode="&#xe941;" glyph-name="command" d="M768 298.667h-85.333v170.667h85.333c93.867 0 170.667 76.8 170.667 170.667s-76.8 170.667-170.667 170.667-170.667-76.8-170.667-170.667v-85.333h-170.667v85.333c0 93.867-76.8 170.667-170.667 170.667s-170.667-76.8-170.667-170.667 76.8-170.667 170.667-170.667h85.333v-170.667h-85.333c-93.867 0-170.667-76.8-170.667-170.667s76.8-170.667 170.667-170.667 170.667 76.8 170.667 170.667v85.333h170.667v-85.333c0-93.867 76.8-170.667 170.667-170.667s170.667 76.8 170.667 170.667-76.8 170.667-170.667 170.667zM682.667 640c0 46.933 38.4 85.333 85.333 85.333s85.333-38.4 85.333-85.333-38.4-85.333-85.333-85.333h-85.333v85.333zM341.333 128c0-46.933-38.4-85.333-85.333-85.333s-85.333 38.4-85.333 85.333 38.4 85.333 85.333 85.333h85.333v-85.333zM341.333 554.667h-85.333c-46.933 0-85.333 38.4-85.333 85.333s38.4 85.333 85.333 85.333 85.333-38.4 85.333-85.333v-85.333zM597.333 298.667h-170.667v170.667h170.667v-170.667zM768 42.667c-46.933 0-85.333 38.4-85.333 85.333v85.333h85.333c46.933 0 85.333-38.4 85.333-85.333s-38.4-85.333-85.333-85.333z" />
<glyph unicode="&#xe942;" glyph-name="compass" d="M512 853.333c-260.267 0-469.333-209.067-469.333-469.333s209.067-469.333 469.333-469.333 469.333 209.067 469.333 469.333-209.067 469.333-469.333 469.333zM512 0c-213.333 0-384 170.667-384 384s170.667 384 384 384c213.333 0 384-170.667 384-384s-170.667-384-384-384zM678.4 605.867l-268.8-89.6c-12.8-4.267-25.6-17.067-29.867-29.867l-89.6-273.067c-4.267-17.067 0-34.133 8.533-42.667s17.067-12.8 29.867-12.8c4.267 0 8.533 0 12.8 4.267l273.067 89.6c12.8 4.267 21.333 12.8 25.6 25.6l89.6 273.067c4.267 17.067 0 34.133-8.533 42.667-8.533 12.8-25.6 17.067-42.667 12.8zM567.467 328.533l-170.667-55.467 55.467 170.667 170.667 55.467-55.467-170.667z" />
<glyph unicode="&#xe943;" glyph-name="copy" d="M853.333 554.667h-384c-72.533 0-128-55.467-128-128v-384c0-72.533 55.467-128 128-128h384c72.533 0 128 55.467 128 128v384c0 72.533-55.467 128-128 128zM896 42.667c0-25.6-17.067-42.667-42.667-42.667h-384c-25.6 0-42.667 17.067-42.667 42.667v384c0 25.6 17.067 42.667 42.667 42.667h384c25.6 0 42.667-17.067 42.667-42.667v-384zM213.333 298.667h-42.667c-25.6 0-42.667 17.067-42.667 42.667v384c0 25.6 17.067 42.667 42.667 42.667h384c25.6 0 42.667-17.067 42.667-42.667v-42.667c0-25.6 17.067-42.667 42.667-42.667s42.667 17.067 42.667 42.667v42.667c0 72.533-55.467 128-128 128h-384c-72.533 0-128-55.467-128-128v-384c0-72.533 55.467-128 128-128h42.667c25.6 0 42.667 17.067 42.667 42.667s-17.067 42.667-42.667 42.667z" />
<glyph unicode="&#xe944;" glyph-name="corner-down-left" d="M853.333 768c-25.6 0-42.667-17.067-42.667-42.667v-298.667c0-72.533-55.467-128-128-128h-409.6l140.8 140.8c17.067 17.067 17.067 42.667 0 59.733s-42.667 17.067-59.733 0l-213.333-213.333c-4.267-4.267-8.533-8.533-8.533-12.8-4.267-8.533-4.267-21.333 0-34.133 4.267-4.267 4.267-8.533 8.533-12.8l213.333-213.333c8.533-8.533 17.067-12.8 29.867-12.8s21.333 4.267 29.867 12.8c17.067 17.067 17.067 42.667 0 59.733l-140.8 140.8h409.6c119.467 0 213.333 93.867 213.333 213.333v298.667c0 25.6-17.067 42.667-42.667 42.667z" />
<glyph unicode="&#xe945;" glyph-name="corner-down-right" d="M891.733 238.933c4.267 8.533 4.267 21.333 0 34.133-4.267 4.267-4.267 8.533-8.533 12.8l-213.333 213.333c-17.067 17.067-42.667 17.067-59.733 0s-17.067-42.667 0-59.733l140.8-140.8h-409.6c-72.533 0-128 55.467-128 128v298.667c0 25.6-17.067 42.667-42.667 42.667s-42.667-17.067-42.667-42.667v-298.667c0-119.467 93.867-213.333 213.333-213.333h409.6l-140.8-140.8c-17.067-17.067-17.067-42.667 0-59.733 8.533-8.533 21.333-12.8 29.867-12.8s21.333 4.267 29.867 12.8l213.333 213.333c4.267 4.267 8.533 8.533 8.533 12.8z" />
<glyph unicode="&#xe946;" glyph-name="corner-left-down" d="M853.333 768h-298.667c-119.467 0-213.333-93.867-213.333-213.333v-409.6l-140.8 140.8c-17.067 17.067-42.667 17.067-59.733 0s-17.067-42.667 0-59.733l213.333-213.333c4.267-4.267 8.533-8.533 12.8-8.533 4.267-4.267 12.8-4.267 17.067-4.267s12.8 0 17.067 4.267c4.267 4.267 8.533 4.267 12.8 8.533l213.333 213.333c17.067 17.067 17.067 42.667 0 59.733s-42.667 17.067-59.733 0l-140.8-140.8v409.6c0 72.533 55.467 128 128 128h298.667c25.6 0 42.667 17.067 42.667 42.667s-17.067 42.667-42.667 42.667z" />
<glyph unicode="&#xe947;" glyph-name="corner-left-up" d="M853.333 85.333h-298.667c-72.533 0-128 55.467-128 128v409.6l140.8-140.8c8.533-8.533 17.067-12.8 29.867-12.8s21.333 4.267 29.867 12.8c17.067 17.067 17.067 42.667 0 59.733l-213.333 213.333c-4.267 4.267-8.533 8.533-12.8 8.533-12.8 4.267-21.333 4.267-34.133 0-4.267 0-8.533-4.267-12.8-8.533l-213.333-213.333c-17.067-17.067-17.067-42.667 0-59.733s42.667-17.067 59.733 0l140.8 140.8v-409.6c0-119.467 93.867-213.333 213.333-213.333h298.667c25.6 0 42.667 17.067 42.667 42.667s-17.067 42.667-42.667 42.667z" />
<glyph unicode="&#xe948;" glyph-name="corner-right-down" d="M883.2 285.867c-17.067 17.067-42.667 17.067-59.733 0l-140.8-140.8v409.6c0 119.467-93.867 213.333-213.333 213.333h-298.667c-25.6 0-42.667-17.067-42.667-42.667s17.067-42.667 42.667-42.667h298.667c72.533 0 128-55.467 128-128v-409.6l-140.8 140.8c-17.067 17.067-42.667 17.067-59.733 0s-17.067-42.667 0-59.733l213.333-213.333c4.267-4.267 8.533-8.533 12.8-8.533 4.267-4.267 12.8-4.267 17.067-4.267s12.8 0 17.067 4.267c4.267 4.267 8.533 4.267 12.8 8.533l213.333 213.333c17.067 17.067 17.067 42.667 0 59.733z" />
<glyph unicode="&#xe949;" glyph-name="corner-right-up" d="M883.2 541.867l-213.333 213.333c-4.267 4.267-8.533 8.533-12.8 8.533-8.533 4.267-21.333 4.267-34.133 0-4.267-4.267-8.533-4.267-12.8-8.533l-213.333-213.333c-17.067-17.067-17.067-42.667 0-59.733s42.667-17.067 59.733 0l140.8 140.8v-409.6c0-72.533-55.467-128-128-128h-298.667c-25.6 0-42.667-17.067-42.667-42.667s17.067-42.667 42.667-42.667h298.667c119.467 0 213.333 93.867 213.333 213.333v409.6l140.8-140.8c8.533-8.533 17.067-12.8 29.867-12.8s21.333 4.267 29.867 12.8c17.067 17.067 17.067 42.667 0 59.733z" />
<glyph unicode="&#xe94a;" glyph-name="corner-up-left" d="M682.667 554.667h-409.6l140.8 140.8c17.067 17.067 17.067 42.667 0 59.733s-42.667 17.067-59.733 0l-213.333-213.333c-4.267-4.267-8.533-8.533-8.533-12.8-4.267-12.8-4.267-21.333 0-34.133 4.267-4.267 4.267-8.533 8.533-12.8l213.333-213.333c8.533-8.533 17.067-12.8 29.867-12.8s21.333 4.267 29.867 12.8c17.067 17.067 17.067 42.667 0 59.733l-140.8 140.8h409.6c72.533 0 128-55.467 128-128v-298.667c0-25.6 17.067-42.667 42.667-42.667s42.667 17.067 42.667 42.667v298.667c0 119.467-93.867 213.333-213.333 213.333z" />
<glyph unicode="&#xe94b;" glyph-name="corner-up-right" d="M891.733 494.933c4.267 8.533 4.267 21.333 0 34.133-4.267 4.267-4.267 8.533-8.533 12.8l-213.333 213.333c-17.067 17.067-42.667 17.067-59.733 0s-17.067-42.667 0-59.733l140.8-140.8h-409.6c-119.467 0-213.333-93.867-213.333-213.333v-298.667c0-25.6 17.067-42.667 42.667-42.667s42.667 17.067 42.667 42.667v298.667c0 72.533 55.467 128 128 128h409.6l-140.8-140.8c-17.067-17.067-17.067-42.667 0-59.733 8.533-8.533 21.333-12.8 29.867-12.8s21.333 4.267 29.867 12.8l213.333 213.333c4.267 4.267 8.533 8.533 8.533 12.8z" />
<glyph unicode="&#xe94c;" glyph-name="cpu" d="M640 554.667h-256c-25.6 0-42.667-17.067-42.667-42.667v-256c0-25.6 17.067-42.667 42.667-42.667h256c25.6 0 42.667 17.067 42.667 42.667v256c0 25.6-17.067 42.667-42.667 42.667zM597.333 298.667h-170.667v170.667h170.667v-170.667zM981.333 341.333h-85.333v128h85.333c25.6 0 42.667 17.067 42.667 42.667s-17.067 42.667-42.667 42.667h-85.333v85.333c0 72.533-55.467 128-128 128h-85.333v85.333c0 25.6-17.067 42.667-42.667 42.667s-42.667-17.067-42.667-42.667v-85.333h-170.667v85.333c0 25.6-17.067 42.667-42.667 42.667s-42.667-17.067-42.667-42.667v-85.333h-85.333c-72.533 0-128-55.467-128-128v-85.333h-85.333c-25.6 0-42.667-17.067-42.667-42.667s17.067-42.667 42.667-42.667h85.333v-128h-85.333c-25.6 0-42.667-17.067-42.667-42.667s17.067-42.667 42.667-42.667h85.333v-128c0-72.533 55.467-128 128-128h85.333v-85.333c0-25.6 17.067-42.667 42.667-42.667s42.667 17.067 42.667 42.667v85.333h170.667v-85.333c0-25.6 17.067-42.667 42.667-42.667s42.667 17.067 42.667 42.667v85.333h85.333c72.533 0 128 55.467 128 128v128h85.333c25.6 0 42.667 17.067 42.667 42.667s-17.067 42.667-42.667 42.667zM810.667 128c0-25.6-17.067-42.667-42.667-42.667h-512c-25.6 0-42.667 17.067-42.667 42.667v512c0 25.6 17.067 42.667 42.667 42.667h512c25.6 0 42.667-17.067 42.667-42.667v-512z" />
<glyph unicode="&#xe94d;" glyph-name="credit-card" d="M896 768h-768c-72.533 0-128-55.467-128-128v-512c0-72.533 55.467-128 128-128h768c72.533 0 128 55.467 128 128v512c0 72.533-55.467 128-128 128zM128 682.667h768c25.6 0 42.667-17.067 42.667-42.667v-128h-853.333v128c0 25.6 17.067 42.667 42.667 42.667zM896 85.333h-768c-25.6 0-42.667 17.067-42.667 42.667v298.667h853.333v-298.667c0-25.6-17.067-42.667-42.667-42.667z" />
<glyph unicode="&#xe94e;" glyph-name="crop" d="M981.333 170.667h-170.667v384c0 72.533-55.467 128-128 128l-379.733-4.267v174.933c0 25.6-17.067 42.667-42.667 42.667 0 0 0 0 0 0-21.333 0-42.667-17.067-42.667-42.667v-174.933h-174.933c-25.6 0-42.667-21.333-42.667-42.667s21.333-42.667 42.667-42.667c0 0 0 0 0 0h174.933l-4.267-379.733c0-72.533 55.467-128 128-128h384v-170.667c0-25.6 17.067-42.667 42.667-42.667s42.667 17.067 42.667 42.667v170.667h170.667c25.6 0 42.667 17.067 42.667 42.667s-17.067 42.667-42.667 42.667zM341.333 170.667c-25.6 0-42.667 17.067-42.667 42.667l4.267 379.733 379.733 4.267c25.6 0 42.667-17.067 42.667-42.667v-384h-384z" />
<glyph unicode="&#xe94f;" glyph-name="crosshair" d="M512 853.333c-260.267 0-469.333-209.067-469.333-469.333s209.067-469.333 469.333-469.333 469.333 209.067 469.333 469.333-209.067 469.333-469.333 469.333zM554.667 4.267v123.733c0 25.6-17.067 42.667-42.667 42.667s-42.667-17.067-42.667-42.667v-123.733c-179.2 21.333-320 162.133-337.067 337.067h123.733c25.6 0 42.667 17.067 42.667 42.667s-17.067 42.667-42.667 42.667h-123.733c17.067 179.2 157.867 320 337.067 337.067v-123.733c0-25.6 17.067-42.667 42.667-42.667s42.667 17.067 42.667 42.667v123.733c179.2-21.333 320-162.133 337.067-337.067h-123.733c-25.6 0-42.667-17.067-42.667-42.667s17.067-42.667 42.667-42.667h123.733c-17.067-179.2-157.867-320-337.067-337.067z" />
<glyph unicode="&#xe950;" glyph-name="database" d="M512 853.333c-204.8 0-426.667-55.467-426.667-170.667v-597.333c0-115.2 221.867-170.667 426.667-170.667s426.667 55.467 426.667 170.667v597.333c0 115.2-221.867 170.667-426.667 170.667zM853.333 384c0-21.333-106.667-85.333-341.333-85.333s-341.333 64-341.333 85.333v192c81.067-42.667 213.333-64 341.333-64s260.267 21.333 341.333 64v-192zM512 768c221.867 0 341.333-64 341.333-85.333s-119.467-85.333-341.333-85.333c-221.867 0-341.333 64-341.333 85.333s119.467 85.333 341.333 85.333zM512 0c-234.667 0-341.333 64-341.333 85.333v192c81.067-42.667 213.333-64 341.333-64s260.267 21.333 341.333 64v-192c0-21.333-106.667-85.333-341.333-85.333z" />
<glyph unicode="&#xe951;" glyph-name="delete" d="M896 768h-554.667c-12.8 0-25.6-4.267-34.133-12.8l-298.667-341.333c-12.8-17.067-12.8-38.4 0-55.467l298.667-341.333c8.533-12.8 21.333-17.067 34.133-17.067h554.667c72.533 0 128 55.467 128 128v512c0 72.533-55.467 128-128 128zM938.667 128c0-25.6-17.067-42.667-42.667-42.667h-533.333l-260.267 298.667 260.267 298.667h533.333c25.6 0 42.667-17.067 42.667-42.667v-512zM797.867 541.867c-17.067 17.067-42.667 17.067-59.733 0l-98.133-98.133-98.133 98.133c-17.067 17.067-42.667 17.067-59.733 0s-17.067-42.667 0-59.733l98.133-98.133-98.133-98.133c-17.067-17.067-17.067-42.667 0-59.733 8.533-8.533 21.333-12.8 29.867-12.8s21.333 4.267 29.867 12.8l98.133 98.133 98.133-98.133c8.533-8.533 21.333-12.8 29.867-12.8s21.333 4.267 29.867 12.8c17.067 17.067 17.067 42.667 0 59.733l-98.133 98.133 98.133 98.133c17.067 17.067 17.067 42.667 0 59.733z" />
<glyph unicode="&#xe952;" glyph-name="disc" d="M512 853.333c-260.267 0-469.333-209.067-469.333-469.333s209.067-469.333 469.333-469.333 469.333 209.067 469.333 469.333-209.067 469.333-469.333 469.333zM512 0c-213.333 0-384 170.667-384 384s170.667 384 384 384c213.333 0 384-170.667 384-384s-170.667-384-384-384zM512 554.667c-93.867 0-170.667-76.8-170.667-170.667s76.8-170.667 170.667-170.667c93.867 0 170.667 76.8 170.667 170.667s-76.8 170.667-170.667 170.667zM512 298.667c-46.933 0-85.333 38.4-85.333 85.333s38.4 85.333 85.333 85.333c46.933 0 85.333-38.4 85.333-85.333s-38.4-85.333-85.333-85.333z" />
<glyph unicode="&#xe953;" glyph-name="dollar-sign" d="M618.667 426.667h-64v213.333h170.667c25.6 0 42.667 17.067 42.667 42.667s-17.067 42.667-42.667 42.667h-170.667v128c0 25.6-17.067 42.667-42.667 42.667s-42.667-17.067-42.667-42.667v-128h-64c-106.667 0-192-85.333-192-192s85.333-192 192-192h64v-213.333h-213.333c-25.6 0-42.667-17.067-42.667-42.667s17.067-42.667 42.667-42.667h213.333v-128c0-25.6 17.067-42.667 42.667-42.667s42.667 17.067 42.667 42.667v128h64c106.667 0 192 85.333 192 192s-85.333 192-192 192zM405.333 426.667c-59.733 0-106.667 46.933-106.667 106.667s46.933 106.667 106.667 106.667h64v-213.333h-64zM618.667 128h-64v213.333h64c59.733 0 106.667-46.933 106.667-106.667s-46.933-106.667-106.667-106.667z" />
<glyph unicode="&#xe954;" glyph-name="download" d="M896 298.667c-25.6 0-42.667-17.067-42.667-42.667v-170.667c0-25.6-17.067-42.667-42.667-42.667h-597.333c-25.6 0-42.667 17.067-42.667 42.667v170.667c0 25.6-17.067 42.667-42.667 42.667s-42.667-17.067-42.667-42.667v-170.667c0-72.533 55.467-128 128-128h597.333c72.533 0 128 55.467 128 128v170.667c0 25.6-17.067 42.667-42.667 42.667zM482.133 226.133c4.267-4.267 8.533-8.533 12.8-8.533 4.267-4.267 12.8-4.267 17.067-4.267s12.8 0 17.067 4.267c4.267 4.267 8.533 4.267 12.8 8.533l213.333 213.333c17.067 17.067 17.067 42.667 0 59.733s-42.667 17.067-59.733 0l-140.8-140.8v409.6c0 25.6-17.067 42.667-42.667 42.667s-42.667-17.067-42.667-42.667v-409.6l-140.8 140.8c-17.067 17.067-42.667 17.067-59.733 0s-17.067-42.667 0-59.733l213.333-213.333z" />
<glyph unicode="&#xe955;" glyph-name="download-cloud" d="M652.8 200.533l-98.133-98.133v281.6c0 25.6-17.067 42.667-42.667 42.667s-42.667-17.067-42.667-42.667v-281.6l-98.133 98.133c-17.067 17.067-42.667 17.067-59.733 0s-17.067-42.667 0-59.733l170.667-170.667c4.267-4.267 8.533-8.533 12.8-8.533 4.267-4.267 12.8-4.267 17.067-4.267s12.8 0 17.067 4.267c4.267 4.267 8.533 4.267 12.8 8.533l170.667 170.667c17.067 17.067 17.067 42.667 0 59.733s-42.667 17.067-59.733 0zM977.067 448c-46.933 64-123.733 106.667-209.067 106.667 0 0 0 0 0 0h-21.333c-64 187.733-264.533 294.4-456.533 243.2-102.4-25.6-183.467-85.333-238.933-174.933-51.2-89.6-68.267-192-42.667-290.133 17.067-59.733 42.667-115.2 85.333-157.867 17.067-17.067 42.667-21.333 59.733-4.267s21.333 42.667 4.267 59.733c-29.867 34.133-55.467 76.8-64 123.733-21.333 76.8-8.533 157.867 34.133 226.133s106.667 119.467 183.467 136.533c157.867 42.667 324.267-55.467 362.667-213.333 4.267-17.067 21.333-34.133 42.667-34.133h51.2c0 0 0 0 0 0 55.467 0 106.667-25.6 140.8-72.533 25.6-38.4 38.4-81.067 29.867-128s-34.133-85.333-68.267-110.933c-21.333-12.8-25.6-38.4-8.533-59.733 8.533-12.8 21.333-17.067 34.133-17.067 8.533 0 17.067 4.267 25.6 8.533 55.467 38.4 93.867 98.133 106.667 166.4s-12.8 132.267-51.2 192z" />
<glyph unicode="&#xe956;" glyph-name="droplet" d="M785.067 571.733l-243.2 238.933c-8.533 8.533-17.067 12.8-29.867 12.8v0c-12.8 0-21.333-4.267-29.867-12.8l-238.933-238.933c0 0 0 0 0 0-76.8-72.533-115.2-170.667-115.2-273.067s38.4-200.533 110.933-273.067c72.533-72.533 170.667-110.933 273.067-110.933 0 0 0 0 0 0 102.4 0 200.533 38.4 273.067 110.933 149.333 149.333 149.333 392.533 0 546.133zM725.333 85.333c-59.733-55.467-132.267-85.333-213.333-85.333 0 0 0 0 0 0-81.067 0-153.6 29.867-209.067 85.333-59.733 59.733-89.6 132.267-89.6 213.333s29.867 153.6 85.333 209.067c0 0 0 0 0 0l209.067 213.333 213.333-213.333c119.467-115.2 119.467-302.933 4.267-422.4z" />
<glyph unicode="&#xe957;" glyph-name="edit" d="M853.333 311.467c-25.6 0-42.667-17.067-42.667-42.667v-226.133c0-25.6-17.067-42.667-42.667-42.667h-597.333c-25.6 0-42.667 17.067-42.667 42.667v597.333c0 25.6 17.067 42.667 42.667 42.667h226.133c25.6 0 42.667 17.067 42.667 42.667s-17.067 42.667-42.667 42.667h-226.133c-72.533 0-128-55.467-128-128v-597.333c0-72.533 55.467-128 128-128h597.333c72.533 0 128 55.467 128 128v226.133c0 25.6-17.067 42.667-42.667 42.667zM968.533 669.867l-170.667 170.667c-17.067 17.067-42.667 17.067-59.733 0l-426.667-426.667c-8.533-8.533-12.8-17.067-12.8-29.867v-170.667c0-25.6 17.067-42.667 42.667-42.667h170.667c12.8 0 21.333 4.267 29.867 12.8l426.667 426.667c17.067 17.067 17.067 42.667 0 59.733zM494.933 256h-110.933v110.933l384 384 110.933-110.933-384-384z" />
<glyph unicode="&#xe958;" glyph-name="edit-2" d="M925.867 584.533l-213.333 213.333c-17.067 17.067-42.667 17.067-59.733 0l-554.667-554.667c-8.533-8.533-12.8-17.067-12.8-29.867v-213.333c0-25.6 17.067-42.667 42.667-42.667h213.333c12.8 0 21.333 4.267 29.867 12.8l554.667 554.667c17.067 17.067 17.067 42.667 0 59.733zM324.267 42.667h-153.6v153.6l512 512 153.6-153.6-512-512z" />
<glyph unicode="&#xe959;" glyph-name="edit-3" d="M128 128h170.667c12.8 0 21.333 4.267 29.867 12.8l469.333 469.333c17.067 17.067 17.067 42.667 0 59.733l-170.667 170.667c-17.067 17.067-42.667 17.067-59.733 0l-469.333-469.333c-8.533-8.533-12.8-17.067-12.8-29.867v-170.667c0-25.6 17.067-42.667 42.667-42.667zM170.667 324.267l426.667 426.667 110.933-110.933-426.667-426.667h-110.933v110.933zM896 0h-768c-25.6 0-42.667-17.067-42.667-42.667s17.067-42.667 42.667-42.667h768c25.6 0 42.667 17.067 42.667 42.667s-17.067 42.667-42.667 42.667z" />
<glyph unicode="&#xe95a;" glyph-name="external-link" d="M768 384c-25.6 0-42.667-17.067-42.667-42.667v-256c0-25.6-17.067-42.667-42.667-42.667h-469.333c-25.6 0-42.667 17.067-42.667 42.667v469.333c0 25.6 17.067 42.667 42.667 42.667h256c25.6 0 42.667 17.067 42.667 42.667s-17.067 42.667-42.667 42.667h-256c-72.533 0-128-55.467-128-128v-469.333c0-72.533 55.467-128 128-128h469.333c72.533 0 128 55.467 128 128v256c0 25.6-17.067 42.667-42.667 42.667zM934.4 785.067c-4.267 8.533-12.8 17.067-21.333 21.333-4.267 4.267-12.8 4.267-17.067 4.267h-256c-25.6 0-42.667-17.067-42.667-42.667s17.067-42.667 42.667-42.667h153.6l-396.8-396.8c-17.067-17.067-17.067-42.667 0-59.733 8.533-8.533 17.067-12.8 29.867-12.8s21.333 4.267 29.867 12.8l396.8 396.8v-153.6c0-25.6 17.067-42.667 42.667-42.667s42.667 17.067 42.667 42.667v256c0 4.267 0 12.8-4.267 17.067z" />
<glyph unicode="&#xe95b;" glyph-name="eye" d="M1019.733 401.067c-8.533 17.067-187.733 366.933-507.733 366.933s-499.2-349.867-507.733-366.933c-4.267-12.8-4.267-25.6 0-38.4 8.533-12.8 187.733-362.667 507.733-362.667s499.2 349.867 507.733 366.933c4.267 8.533 4.267 25.6 0 34.133zM512 85.333c-230.4 0-379.733 230.4-422.4 298.667 38.4 68.267 192 298.667 422.4 298.667s379.733-230.4 422.4-298.667c-42.667-68.267-192-298.667-422.4-298.667zM512 554.667c-93.867 0-170.667-76.8-170.667-170.667s76.8-170.667 170.667-170.667c93.867 0 170.667 76.8 170.667 170.667s-76.8 170.667-170.667 170.667zM512 298.667c-46.933 0-85.333 38.4-85.333 85.333s38.4 85.333 85.333 85.333c46.933 0 85.333-38.4 85.333-85.333s-38.4-85.333-85.333-85.333z" />
<glyph unicode="&#xe95c;" glyph-name="eye-off" d="M430.933 674.133c25.6 4.267 55.467 8.533 81.067 8.533 230.4 0 379.733-230.4 422.4-298.667-21.333-38.4-46.933-76.8-76.8-106.667-17.067-17.067-12.8-46.933 4.267-59.733 8.533-8.533 17.067-8.533 25.6-8.533 12.8 0 25.6 4.267 34.133 17.067 38.4 42.667 68.267 93.867 98.133 145.067 8.533 12.8 8.533 25.6 0 38.4-8.533 8.533-187.733 358.4-507.733 358.4-34.133 0-68.267-4.267-98.133-12.8-25.6-4.267-38.4-25.6-34.133-51.2 8.533-21.333 29.867-34.133 51.2-29.867zM1011.2-55.467l-938.667 938.667c-17.067 17.067-42.667 17.067-59.733 0s-17.067-42.667 0-59.733l183.467-183.467c-76.8-68.267-140.8-145.067-192-234.667-8.533-12.8-8.533-25.6 0-38.4 8.533-17.067 187.733-366.933 507.733-366.933 89.6 0 174.933 25.6 247.467 76.8l192-192c8.533-8.533 21.333-12.8 29.867-12.8s21.333 4.267 29.867 12.8c17.067 17.067 17.067 42.667 0 59.733zM426.667 409.6l106.667-106.667c-8.533-4.267-17.067-4.267-25.6-4.267-21.333 0-42.667 8.533-59.733 21.333-17.067 17.067-25.6 38.4-25.6 59.733 0 8.533 4.267 17.067 4.267 29.867zM512 85.333c-230.4 0-379.733 230.4-422.4 298.667 42.667 76.8 98.133 140.8 166.4 196.267l106.667-110.933c-17.067-29.867-25.6-64-25.6-98.133 0-46.933 21.333-89.6 55.467-119.467 29.867-29.867 72.533-46.933 115.2-46.933 0 0 4.267 0 4.267 0 29.867 0 59.733 12.8 85.333 25.6l98.133-98.133c-55.467-29.867-119.467-46.933-183.467-46.933z" />
<glyph unicode="&#xe95d;" glyph-name="fast-forward" d="M964.267 418.133l-384 298.667c-12.8 8.533-29.867 12.8-46.933 4.267-12.8-8.533-21.333-21.333-21.333-38.4v-597.333c0-17.067 8.533-29.867 25.6-38.4 4.267-4.267 12.8-4.267 17.067-4.267 8.533 0 17.067 4.267 25.6 8.533l384 298.667c8.533 8.533 17.067 21.333 17.067 34.133s-4.267 25.6-17.067 34.133zM597.333 170.667v426.667l273.067-213.333-273.067-213.333zM110.933 716.8c-12.8 8.533-29.867 12.8-42.667 4.267-17.067-8.533-25.6-21.333-25.6-38.4v-597.333c0-17.067 8.533-29.867 25.6-38.4 4.267-4.267 12.8-4.267 17.067-4.267 8.533 0 17.067 4.267 25.6 8.533l384 298.667c8.533 8.533 17.067 21.333 17.067 34.133s-4.267 25.6-17.067 34.133l-384 298.667zM128 170.667v426.667l273.067-213.333-273.067-213.333z" />
<glyph unicode="&#xe95e;" glyph-name="feather" d="M891.733 768c-115.2 115.2-307.2 115.2-422.4 0l-285.867-290.133c-8.533-8.533-12.8-17.067-12.8-29.867v-345.6l-115.2-115.2c-17.067-17.067-17.067-42.667 0-59.733 8.533-8.533 17.067-12.8 29.867-12.8s21.333 4.267 29.867 12.8l115.2 115.2h345.6c12.8 0 21.333 4.267 29.867 12.8l285.867 290.133c119.467 115.2 119.467 302.933 0 422.4zM558.933 128h-243.2l85.333 85.333h243.2l-85.333-85.333zM832 405.333c0 0 0 0 0 0l-102.4-106.667c0 0 0 0-4.267 0h-238.933l226.133 226.133c17.067 17.067 17.067 42.667 0 59.733s-42.667 17.067-59.733 0l-298.667-298.667c0 0 0 0 0 0l-98.133-98.133v243.2l277.333 277.333c85.333 85.333 217.6 85.333 302.933 0 81.067-85.333 81.067-221.867-4.267-302.933z" />
<glyph unicode="&#xe95f;" glyph-name="file" d="M891.733 529.067c-4.267 4.267-4.267 8.533-8.533 12.8l-298.667 298.667c-4.267 4.267-8.533 8.533-12.8 8.533-4.267 4.267-12.8 4.267-17.067 4.267h-298.667c-72.533 0-128-55.467-128-128v-682.667c0-72.533 55.467-128 128-128h512c72.533 0 128 55.467 128 128v469.333c0 4.267 0 12.8-4.267 17.067zM597.333 708.267l153.6-153.6h-153.6v153.6zM768 0h-512c-25.6 0-42.667 17.067-42.667 42.667v682.667c0 25.6 17.067 42.667 42.667 42.667h256v-256c0-25.6 17.067-42.667 42.667-42.667h256v-426.667c0-25.6-17.067-42.667-42.667-42.667z" />
<glyph unicode="&#xe960;" glyph-name="file-minus" d="M891.733 571.733c-4.267 4.267-4.267 8.533-8.533 12.8l-256 256c-4.267 4.267-8.533 8.533-12.8 8.533-4.267 4.267-12.8 4.267-17.067 4.267h-341.333c-72.533 0-128-55.467-128-128v-682.667c0-72.533 55.467-128 128-128h512c72.533 0 128 55.467 128 128v512c0 4.267 0 12.8-4.267 17.067zM640 708.267l110.933-110.933h-110.933v110.933zM768 0h-512c-25.6 0-42.667 17.067-42.667 42.667v682.667c0 25.6 17.067 42.667 42.667 42.667h298.667v-213.333c0-25.6 17.067-42.667 42.667-42.667h213.333v-469.333c0-25.6-17.067-42.667-42.667-42.667zM640 298.667h-256c-25.6 0-42.667-17.067-42.667-42.667s17.067-42.667 42.667-42.667h256c25.6 0 42.667 17.067 42.667 42.667s-17.067 42.667-42.667 42.667z" />
<glyph unicode="&#xe961;" glyph-name="file-plus" d="M891.733 571.733c-4.267 4.267-4.267 8.533-8.533 12.8l-256 256c-4.267 4.267-8.533 8.533-12.8 8.533-4.267 4.267-12.8 4.267-17.067 4.267h-341.333c-72.533 0-128-55.467-128-128v-682.667c0-72.533 55.467-128 128-128h512c72.533 0 128 55.467 128 128v512c0 4.267 0 12.8-4.267 17.067zM640 708.267l110.933-110.933h-110.933v110.933zM768 0h-512c-25.6 0-42.667 17.067-42.667 42.667v682.667c0 25.6 17.067 42.667 42.667 42.667h298.667v-213.333c0-25.6 17.067-42.667 42.667-42.667h213.333v-469.333c0-25.6-17.067-42.667-42.667-42.667zM640 298.667h-85.333v85.333c0 25.6-17.067 42.667-42.667 42.667s-42.667-17.067-42.667-42.667v-85.333h-85.333c-25.6 0-42.667-17.067-42.667-42.667s17.067-42.667 42.667-42.667h85.333v-85.333c0-25.6 17.067-42.667 42.667-42.667s42.667 17.067 42.667 42.667v85.333h85.333c25.6 0 42.667 17.067 42.667 42.667s-17.067 42.667-42.667 42.667z" />
<glyph unicode="&#xe962;" glyph-name="file-text" d="M891.733 571.733c-4.267 4.267-4.267 8.533-8.533 12.8l-256 256c-4.267 4.267-8.533 8.533-12.8 8.533-4.267 4.267-12.8 4.267-17.067 4.267h-341.333c-72.533 0-128-55.467-128-128v-682.667c0-72.533 55.467-128 128-128h512c72.533 0 128 55.467 128 128v512c0 4.267 0 12.8-4.267 17.067zM640 708.267l110.933-110.933h-110.933v110.933zM768 0h-512c-25.6 0-42.667 17.067-42.667 42.667v682.667c0 25.6 17.067 42.667 42.667 42.667h298.667v-213.333c0-25.6 17.067-42.667 42.667-42.667h213.333v-469.333c0-25.6-17.067-42.667-42.667-42.667zM682.667 384h-341.333c-25.6 0-42.667-17.067-42.667-42.667s17.067-42.667 42.667-42.667h341.333c25.6 0 42.667 17.067 42.667 42.667s-17.067 42.667-42.667 42.667zM682.667 213.333h-341.333c-25.6 0-42.667-17.067-42.667-42.667s17.067-42.667 42.667-42.667h341.333c25.6 0 42.667 17.067 42.667 42.667s-17.067 42.667-42.667 42.667zM341.333 469.333h85.333c25.6 0 42.667 17.067 42.667 42.667s-17.067 42.667-42.667 42.667h-85.333c-25.6 0-42.667-17.067-42.667-42.667s17.067-42.667 42.667-42.667z" />
<glyph unicode="&#xe963;" glyph-name="film" d="M844.8 853.333h-665.6c-76.8 0-136.533-59.733-136.533-136.533v-665.6c0-76.8 59.733-136.533 136.533-136.533h665.6c76.8 0 136.533 59.733 136.533 136.533v665.6c0 76.8-59.733 136.533-136.533 136.533zM768 554.667h128v-128h-128v128zM682.667 426.667h-341.333v341.333h341.333v-341.333zM256 426.667h-128v128h128v-128zM128 341.333h128v-128h-128v128zM341.333 341.333h341.333v-341.333h-341.333v341.333zM768 341.333h128v-128h-128v128zM896 716.8v-76.8h-128v128h76.8c29.867 0 51.2-21.333 51.2-51.2zM179.2 768h76.8v-128h-128v76.8c0 29.867 21.333 51.2 51.2 51.2zM128 51.2v76.8h128v-128h-76.8c-29.867 0-51.2 21.333-51.2 51.2zM844.8 0h-76.8v128h128v-76.8c0-29.867-21.333-51.2-51.2-51.2z" />
<glyph unicode="&#xe964;" glyph-name="filter" d="M977.067 785.067c-8.533 17.067-21.333 25.6-38.4 25.6h-853.333c-17.067 0-29.867-8.533-38.4-25.6-8.533-12.8-4.267-29.867 4.267-42.667l332.8-392.533v-264.533c0-17.067 8.533-29.867 25.6-38.4l170.667-85.333c4.267-4.267 8.533-4.267 17.067-4.267s17.067 0 21.333 4.267c12.8 8.533 21.333 21.333 21.333 38.4v349.867l332.8 392.533c8.533 12.8 12.8 29.867 4.267 42.667zM563.2 392.533c-4.267-8.533-8.533-17.067-8.533-29.867v-294.4l-85.333 42.667v251.733c0 8.533-4.267 21.333-8.533 25.6l-281.6 337.067h669.867l-285.867-332.8z" />
<glyph unicode="&#xe965;" glyph-name="flag" d="M870.4 806.4c-17.067 8.533-34.133 4.267-46.933-8.533 0 0-38.4-29.867-140.8-29.867-55.467 0-102.4 21.333-153.6 38.4-55.467 25.6-115.2 46.933-187.733 46.933-136.533 0-192-46.933-200.533-55.467s-12.8-17.067-12.8-29.867v-810.667c0-25.6 17.067-42.667 42.667-42.667s42.667 17.067 42.667 42.667v277.333c17.067 8.533 59.733 21.333 128 21.333 55.467 0 102.4-21.333 153.6-38.4 55.467-21.333 115.2-46.933 187.733-46.933 136.533 0 192 46.933 200.533 55.467s12.8 17.067 12.8 29.867v512c0 17.067-8.533 29.867-25.6 38.4zM810.667 277.333c-17.067-8.533-59.733-21.333-128-21.333-55.467 0-102.4 21.333-153.6 38.4-55.467 25.6-115.2 46.933-187.733 46.933-55.467 0-98.133-8.533-128-17.067v422.4c17.067 8.533 59.733 21.333 128 21.333 55.467 0 102.4-21.333 153.6-38.4 55.467-25.6 115.2-46.933 187.733-46.933 55.467 0 98.133 8.533 128 17.067v-422.4z" />
<glyph unicode="&#xe966;" glyph-name="folder" d="M853.333 682.667h-362.667l-72.533 110.933c-8.533 8.533-21.333 17.067-34.133 17.067h-213.333c-72.533 0-128-55.467-128-128v-597.333c0-72.533 55.467-128 128-128h682.667c72.533 0 128 55.467 128 128v469.333c0 72.533-55.467 128-128 128zM896 85.333c0-25.6-17.067-42.667-42.667-42.667h-682.667c-25.6 0-42.667 17.067-42.667 42.667v597.333c0 25.6 17.067 42.667 42.667 42.667h192l72.533-110.933c8.533-8.533 21.333-17.067 34.133-17.067h384c25.6 0 42.667-17.067 42.667-42.667v-469.333z" />
<glyph unicode="&#xe967;" glyph-name="folder-minus" d="M853.333 682.667h-362.667l-72.533 110.933c-8.533 8.533-21.333 17.067-34.133 17.067h-213.333c-72.533 0-128-55.467-128-128v-597.333c0-72.533 55.467-128 128-128h682.667c72.533 0 128 55.467 128 128v469.333c0 72.533-55.467 128-128 128zM896 85.333c0-25.6-17.067-42.667-42.667-42.667h-682.667c-25.6 0-42.667 17.067-42.667 42.667v597.333c0 25.6 17.067 42.667 42.667 42.667h192l72.533-110.933c8.533-8.533 21.333-17.067 34.133-17.067h384c25.6 0 42.667-17.067 42.667-42.667v-469.333zM640 341.333h-256c-25.6 0-42.667-17.067-42.667-42.667s17.067-42.667 42.667-42.667h256c25.6 0 42.667 17.067 42.667 42.667s-17.067 42.667-42.667 42.667z" />
<glyph unicode="&#xe968;" glyph-name="folder-plus" d="M853.333 682.667h-362.667l-72.533 110.933c-8.533 8.533-21.333 17.067-34.133 17.067h-213.333c-72.533 0-128-55.467-128-128v-597.333c0-72.533 55.467-128 128-128h682.667c72.533 0 128 55.467 128 128v469.333c0 72.533-55.467 128-128 128zM896 85.333c0-25.6-17.067-42.667-42.667-42.667h-682.667c-25.6 0-42.667 17.067-42.667 42.667v597.333c0 25.6 17.067 42.667 42.667 42.667h192l72.533-110.933c8.533-8.533 21.333-17.067 34.133-17.067h384c25.6 0 42.667-17.067 42.667-42.667v-469.333zM640 341.333h-85.333v85.333c0 25.6-17.067 42.667-42.667 42.667s-42.667-17.067-42.667-42.667v-85.333h-85.333c-25.6 0-42.667-17.067-42.667-42.667s17.067-42.667 42.667-42.667h85.333v-85.333c0-25.6 17.067-42.667 42.667-42.667s42.667 17.067 42.667 42.667v85.333h85.333c25.6 0 42.667 17.067 42.667 42.667s-17.067 42.667-42.667 42.667z" />
<glyph unicode="&#xe969;" glyph-name="gift" d="M938.667 640h-102.4c12.8 21.333 17.067 42.667 17.067 64 0 81.067-68.267 149.333-149.333 149.333-98.133 0-157.867-68.267-192-132.267-34.133 64-93.867 132.267-192 132.267-81.067 0-149.333-68.267-149.333-149.333 0-21.333 4.267-42.667 17.067-64h-102.4c-25.6 0-42.667-17.067-42.667-42.667v-213.333c0-25.6 17.067-42.667 42.667-42.667h42.667v-384c0-25.6 17.067-42.667 42.667-42.667h682.667c25.6 0 42.667 17.067 42.667 42.667v384h42.667c25.6 0 42.667 17.067 42.667 42.667v213.333c0 25.6-17.067 42.667-42.667 42.667zM704 768c34.133 0 64-29.867 64-64s-29.867-64-64-64h-136.533c21.333 51.2 64 128 136.533 128zM256 704c0 34.133 29.867 64 64 64 72.533 0 115.2-76.8 136.533-128h-136.533c-34.133 0-64 29.867-64 64zM128 554.667h341.333v-128h-341.333v128zM213.333 341.333h256v-341.333h-256v341.333zM810.667 0h-256v341.333h256v-341.333zM896 426.667h-341.333v128h341.333v-128z" />
<glyph unicode="&#xe96a;" glyph-name="git-branch" d="M938.667 640c0 93.867-76.8 170.667-170.667 170.667s-170.667-76.8-170.667-170.667c0-76.8 55.467-145.067 128-162.133-17.067-157.867-145.067-285.867-302.933-302.933-17.067 59.733-64 106.667-119.467 119.467v473.6c0 25.6-17.067 42.667-42.667 42.667s-46.933-17.067-46.933-42.667v-473.6c-72.533-17.067-128-85.333-128-166.4 0-93.867 76.8-170.667 170.667-170.667 81.067 0 145.067 55.467 166.4 128 204.8 17.067 371.2 183.467 388.267 388.267 72.533 21.333 128 85.333 128 166.4zM256 42.667c-46.933 0-85.333 38.4-85.333 85.333s38.4 85.333 85.333 85.333 85.333-38.4 85.333-85.333-38.4-85.333-85.333-85.333zM768 554.667c-46.933 0-85.333 38.4-85.333 85.333s38.4 85.333 85.333 85.333 85.333-38.4 85.333-85.333-38.4-85.333-85.333-85.333z" />
<glyph unicode="&#xe96b;" glyph-name="git-commit" d="M981.333 426.667h-256c0 0-4.267 0-4.267 0-21.333 98.133-106.667 170.667-209.067 170.667s-187.733-72.533-209.067-170.667c0 0-4.267 0-4.267 0h-256c-25.6 0-42.667-17.067-42.667-42.667s17.067-42.667 42.667-42.667h256c0 0 4.267 0 4.267 0 21.333-98.133 106.667-170.667 209.067-170.667s187.733 72.533 209.067 170.667c0 0 4.267 0 4.267 0h256c25.6 0 42.667 17.067 42.667 42.667s-21.333 42.667-42.667 42.667zM512 256c-72.533 0-128 55.467-128 128s55.467 128 128 128 128-55.467 128-128-55.467-128-128-128z" />
<glyph unicode="&#xe96c;" glyph-name="git-merge" d="M768 298.667c-76.8 0-145.067-55.467-162.133-128-157.867 17.067-285.867 145.067-302.933 302.933 72.533 21.333 128 85.333 128 162.133 0 93.867-76.8 170.667-170.667 170.667s-174.933-72.533-174.933-166.4c0-81.067 55.467-145.067 128-166.4v-473.6c0-25.6 17.067-42.667 42.667-42.667s42.667 17.067 42.667 42.667v256c72.533-93.867 179.2-157.867 302.933-170.667 17.067-72.533 85.333-132.267 166.4-132.267 93.867 0 170.667 76.8 170.667 170.667s-76.8 174.933-170.667 174.933zM170.667 640c0 46.933 38.4 85.333 85.333 85.333s85.333-38.4 85.333-85.333-38.4-85.333-85.333-85.333-85.333 38.4-85.333 85.333zM768 42.667c-46.933 0-85.333 38.4-85.333 85.333s38.4 85.333 85.333 85.333 85.333-38.4 85.333-85.333-38.4-85.333-85.333-85.333z" />
</font>
</defs>
</svg>
